慢慢游社区

 找回密码
 我要注册
搜索
查看: 820|回复: 77

[国英多音轨] 免费 安娜贝尔3:回家 国英双语双字Annabelle.Comes.Home.1080p.BluRay.mkv

  [复制链接]

签到天数: 420 天

[LV.9]以坛为家II

2

主题

572

帖子

2108

积分

Rank: 8Rank: 8

阅读权限
50
游币
1329
精品值
0
热心值
0
分享值
11
在线时间
185 小时
注册时间
2020-10-1
最后登录
2021-12-6
发表于 2021-11-21 13:07:07 | 显示全部楼层 |阅读模式
安娜贝尔3:回家 Annabelle Comes Home
Annabelle Comes Home导演: 加里·多伯曼
编剧: 加里·多伯曼 / 温子仁
主演: 维拉·法米加 / 帕特里克·威尔森 / 麦肯娜·格瑞丝 / 麦迪森·伊瑟曼 / 凯蒂·萨里费 / 更多...
类型: 悬疑 / 惊悚 / 恐怖
制片国家/地区: 美国
语言: 英语
上映日期: 2019-06-26(美国)
片长: 106分钟
又名: 安娜贝尔3 / 诡娃安娜贝尔:回家(港) / 安娜贝尔回家啰(台) / 安娜贝尔回家 / Annabelle 3
IMDb: tt8350360
豆瓣评分
6.0

安娜贝尔3:回家的剧情简介 · · · · · ·
  故事背景就发生在驱魔名人艾德与罗琳华伦这对恶魔学巫术顾问夫妇的家中;他们在各地为有需要的人驱魔,并且为了防止这些恶魔邪灵再度危害人间,他们将那些被诅咒、被鬼附身甚至被拿来举行邪教仪式的物品带回家中,放置于神器室兼灵异博物馆中加以保存,并且固定时间请神父来祈福、净化,而邪恶到连罗琳华伦都不想与它正面直视的安娜贝尔就是被华伦夫妇灵异博物馆「收藏」的物品之一。
  在某个不洁的夜里,通往华伦夫妇灵异博物馆的大门被开启,华伦夫妇女儿茱蒂的朋友进入了灵异博物馆内,不知事态严重性的她,不经意地将安娜贝尔释放出来,带领着馆中所有被释放出的恶灵,苏醒过来的安娜贝尔与恶灵们有了全新的目标:华伦家的女儿茱蒂与她的好朋友…
General
Complete name                  :安娜贝尔3:回家 国英双语双字Annabelle.Comes.Home.2019.1080p.BluRay..mkv
Format                         : Matroska
Format version                 : Version 4 / Version 2
File size                      : 1.44 GiB
Duration                       : 1 h 46 min
Overall bit rate               : 1 947 kb/s
Encoded date                   : UTC 2021-10-14 15:01:46
Writing application            : mkvmerge v9.6.0 ('Slave To Your Mind') 32bit
Writing library                : libebml v1.3.4 + libmatroska v1.4.5

Video
ID                             : 2
Format                         : HEVC
Duration                       : 1 h 46 min
Bit rate                       : 1 560 kb/s
Width                          : 1 920 pixels
Height                         : 808 pixels
Display aspect ratio           : 2.40:1
Frame rate mode                : Constant
Frame rate                     : 23.976 (24000/1001) FPS
Color space                    : YUV
Chroma subsampling             : 4:2:0
Bit depth                      : 10 bits
Bits/(Pixel*Frame)             : 0.042
Stream size                    : 1.16 GiB (80%)

Language                       : English
Default                        : Yes
Forced                         : No
Color range                    : Limited
Color primaries                : BT.709

Audio #1
ID                             : 1
Format                         : AAC
Format/Info                    : Advanced Audio Codec
Format profile                 : LC
Codec ID                       : A_AAC
Duration                       : 1 h 45 min
Bit rate                       : 96.0 kb/s
Channel(s)                     : 2 channels
Channel positions              : Front: L R
Sampling rate                  : 48.0 kHz
Frame rate                     : 46.875 FPS (1024 spf)
Compression mode               : Lossy
Delay relative to video        : 300 ms
Stream size                    : 72.8 MiB (5%)
Language                       : Chinese

Audio #2
ID                             : 3
Format                         : Opus
Codec ID                       : A_OPUS
Duration                       : 1 h 46 min
Bit rate                       : 288 kb/s
Channel(s)                     : 6 channels
Channel positions              : Front: L C R, Rear: L R, LFE
Sampling rate                  : 48.0 kHz
Frame rate                     : 50.000 FPS (960 spf)
Compression mode               : Lossy
Stream size                    : 218 MiB (15%)
Language                       : English
Default                        : No
Forced                         : No

Text #1
ID                             : 4
Format                         : UTF-8
Codec ID                       : S_TEXT/UTF8
Codec ID/Info                  : UTF-8 Plain Text
Duration                       : 1 h 39 min
Bit rate                       : 34 b/s
Count of elements              : 904
Stream size                    : 25.2 KiB (0%)
Title                          : 英文
Language                       : English
Text #2
ID                             : 5
Format                         : ASS
Codec ID                       : S_TEXT/ASS
Codec ID/Info                  : Advanced Sub Station Alpha
Duration                       : 1 h 39 min
Bit rate                       : 56 b/s
Count of elements              : 994
Compression mode               : Lossless
Stream size                    : 40.9 KiB (0%)
Title                          : 中文ass
Language                       : Chinese
声明:本人提供的所有电影作品均为网上搜集,任何涉及商业盈利目的均不得使用,否则产生的一切后果将由您自己承担!本人不对发布的任何内容及作品负任何法律责任!下载内容仅做学习和宽带测试使用,请在下载后24小时内删除。请购买正版!如果侵权请告之马上删除
有效期一个月链接:>>点击进入百度云下载<<(←购买前请先验证分享链接是否有效)

提取码:
游客,需要您回复成为VIP才能查看隐藏内容

下载后改文件后缀名为mkv

慢慢游社区_p2557085889.webp.jpg

评分

参与人数 5分享值 +5 收起 理由
lchh777 + 1
zhhlmh + 1 慢慢游有你更精彩!
thj + 1
逍遥御 + 1 慢慢游有你更精彩!
waj110 + 1

查看全部评分

楼主精华帖
回复

使用道具 举报

签到天数: 66 天

[LV.6]常住居民II

0

主题

155

帖子

371

积分

Rank: 4

阅读权限
30
游币
196
精品值
0
热心值
0
分享值
0
在线时间
20 小时
注册时间
2021-8-13
最后登录
2021-12-2
发表于 2021-11-21 13:34:47 | 显示全部楼层
楼主发贴辛苦了,谢谢楼主的精彩分享!我觉得慢慢游是注册对了!
回复 支持 反对

使用道具 举报

签到天数: 981 天

[LV.10]以坛为家III

0

主题

1471

帖子

2185

积分

Rank: 8Rank: 8

阅读权限
50
游币
450
精品值
0
热心值
0
分享值
0
在线时间
264 小时
注册时间
2014-11-8
最后登录
2021-12-6
发表于 2021-11-21 13:38:28 | 显示全部楼层
谢谢分享好资源
回复 支持 反对

使用道具 举报

签到天数: 980 天

[LV.10]以坛为家III

1

主题

3150

帖子

5008

积分

Rank: 16Rank: 16Rank: 16Rank: 16

阅读权限
70
游币
259
精品值
41
热心值
0
分享值
0
在线时间
1517 小时
注册时间
2017-10-1
最后登录
2021-12-6

活跃会员

发表于 2021-11-21 13:45:21 | 显示全部楼层
楼主发贴辛苦了,谢谢楼主的精彩分享!我觉得慢慢游是注册对了!
回复 支持 反对

使用道具 举报

签到天数: 1549 天

[LV.Master]伴坛终老

377

主题

4556

帖子

2万

积分

Rank: 32Rank: 32Rank: 32Rank: 32Rank: 32Rank: 32Rank: 32Rank: 32

阅读权限
90
游币
14183
精品值
64
热心值
0
分享值
252
在线时间
1261 小时
注册时间
2017-2-4
最后登录
2021-12-6
发表于 2021-11-21 13:54:13 | 显示全部楼层
本资源找了很久了,终于在慢慢游找到,感谢您的分享。祝慢慢游越来越好!
回复 支持 反对

使用道具 举报

签到天数: 645 天

[LV.9]以坛为家II

4

主题

844

帖子

4631

积分

Rank: 16Rank: 16Rank: 16Rank: 16

阅读权限
70
游币
2671
精品值
177
热心值
0
分享值
0
在线时间
762 小时
注册时间
2019-11-1
最后登录
2021-12-6
发表于 2021-11-21 14:06:47 | 显示全部楼层
感谢分享。这个系列还是不错的。
回复 支持 反对

使用道具 举报

签到天数: 49 天

[LV.5]常住居民I

0

主题

140

帖子

368

积分

Rank: 4

阅读权限
30
游币
199
精品值
0
热心值
0
分享值
0
在线时间
29 小时
注册时间
2021-10-3
最后登录
2021-12-5
发表于 2021-11-21 14:11:35 | 显示全部楼层
本资源找了很久了,终于在慢慢游找到,感谢您的分享。祝慢慢游越来越好!
回复 支持 反对

使用道具 举报

签到天数: 806 天

[LV.10]以坛为家III

0

主题

1082

帖子

1466

积分

Rank: 8Rank: 8

阅读权限
50
游币
14
精品值
0
热心值
0
分享值
0
在线时间
370 小时
注册时间
2018-8-8
最后登录
2021-12-6
发表于 2021-11-21 14:37:44 | 显示全部楼层
谢谢楼主的精彩分享!我觉得慢慢游是注册对了!
回复 支持 反对

使用道具 举报

签到天数: 486 天

[LV.9]以坛为家II

4

主题

925

帖子

1595

积分

Rank: 8Rank: 8

阅读权限
50
游币
456
精品值
0
热心值
0
分享值
0
在线时间
214 小时
注册时间
2020-8-2
最后登录
2021-12-6
发表于 2021-11-21 14:39:51 | 显示全部楼层
谢谢分享。。。辛苦了。
回复 支持 反对

使用道具 举报

签到天数: 345 天

[LV.8]以坛为家I

0

主题

618

帖子

2031

积分

Rank: 8Rank: 8

阅读权限
50
游币
454
精品值
0
热心值
0
分享值
0
在线时间
959 小时
注册时间
2016-4-23
最后登录
2021-12-6
发表于 2021-11-21 14:43:50 | 显示全部楼层
感谢分享好资源
回复 支持 反对

使用道具 举报

回帖须知
本站严禁灌水回复以及讽刺辱骂分享者的行为,轻者扣分警告,重者直接永久封禁。发帖前请详读:点击进入 。以免永久封禁。
 懒得打字?点击快捷回复➔➔ 
您需要登录后才可以回帖 登录 | 我要注册

本版积分规则

小黑屋|手机版|慢慢游社区 ( 站务处理service@mmyfilm.com )

GMT+8, 2021-12-6 20:02 , Processed in 0.280217 second(s), 30 queries .

Powered by Discuz! X3.4

© 2001-2013 Comsenz Inc.

快速回复 返回顶部 返回列表