慢慢游社区

 找回密码
 我要注册
搜索
查看: 1074|回复: 52

[音频组作品] 【岁末免费贴】[百度/115盘][韩国][苌山虎][The.Mimic.2017.1080p.BluRay.x264.AC3-GYLZ/mkv/2.45GB][国韩双语中字]

  [复制链接]

签到天数: 1860 天

[LV.Master]伴坛终老

171

主题

3037

帖子

6万

积分

一个一直走在路上寂寞并快乐着的影视工作者

Rank: 64Rank: 64Rank: 64Rank: 64Rank: 64Rank: 64Rank: 64Rank: 64Rank: 64Rank: 64Rank: 64Rank: 64Rank: 64Rank: 64Rank: 64Rank: 64

阅读权限
255
游币
20891
精品值
19850
热心值
3
分享值
615
在线时间
1926 小时
注册时间
2015-10-16
最后登录
2022-1-27

活跃会员热心会员突出贡献正太勋章色狼勋章猥琐勋章大叔勋章音频组专属勋章爱心勋章灌水之王最佳新人御姐勋章色女勋章纯洁勋章萝莉勋章处女座卯兔射手座子鼠

发表于 2021-12-31 22:40:14 | 显示全部楼层 |阅读模式
本帖最后由 光影流转 于 2022-1-2 05:11 编辑
岁末年关,万语千言。辞旧迎新,西安加油。众志成城,抗疫必胜!2021最后一贴,祝各位会员周末观影愉快!新年见!

国语调用本坛会员@ zhangzihan2002 纬来电影台录制版,在此致谢!音轨proTools调制,在此感谢@ netfan 大神指点!
视频取自BTPT蓝光原盘,大菠萝高码压制,清晰度堪比H265-HEVC效果


                                        苌山虎 장산범 (2017)
慢慢游社区_360截图20211231215126577.jpg
影片信息

◎译  名 苌山虎/仿声灵(台)/The Mimic
◎片  名 장산범
◎年  代 2017
◎产  地 韩国
◎类  别 悬疑/惊悚/恐怖
◎语  言 纬来台配国语 / 韩语
◎上映日期 2017-08-17(韩国)
◎IMDb评分  5.6/10 from 1599 users
◎IMDb链接  https://www.imdb.com/title/tt7046826/
◎豆瓣评分 5.3/10 from 2732 users
◎豆瓣链接 https://douban.com/subject/26350968/
◎片  长 100分钟
◎导  演 许政 Jung Huh
◎编  剧 许政 Jung Huh
◎主  演 廉晶雅 Jung-ah Yum
       朴赫权 Hyuk-kwon Park
       申隣雅 Rin-Ah Shin
       李俊赫 Lee Joon-Hyuk
       方柔雪 Bang Yoo-seol
       许真 Jin Heo
       李律 Lee Yool
       李在恩 Chae-Eun Lee
       张利雨 Jang Liu
       李柱元 Ju-won Lee
       朴秀瑛 Park Soo-yeong
       金秀安 Soo-an Kim
       郑俊元 Joon-won Jeong
       李澾 Lee Dal
       卢·苏珊娜 Noh Susanna
       黄载沅 Hwang Jae-won
       郑志薰 Jung Ji-hoon
       李彩殷 Lee Chae-eun
       吉海妍 Hae-yeon Gil
       林鍾允 Lim Jong-yoon

◎标  签 恐怖 | 韩国 | 惊悚 | 悬疑 | 苌山虎 | 鬼片 | 2017 | 人性

◎简  介


  熙琏(廉晶雅饰)的儿子俊叙在首尔走失了,伤心欲绝的她带着失忆的婆婆回到老家苌山休养,希望婆婆能早点想起俊叙是怎么失踪的。有一天,熙琏在苌山附近的洞穴遇见一个衣衫褴褛的神祕女孩,或许是同情怜悯,或许是空虚寂寞,熙琏将女孩带回家,打算在找到无名女孩的父母之前照顾她。两人日渐亲近,渐渐地女孩变得好像熙琏的女儿一样,她喊起熙琏「妈妈」,还叫自己「俊希」,容貌与音声越来越像消失无踪的「俊叙」。神秘女孩到来之后,陆陆续续发生难以理解的怪事,熙琏的婆婆先是幻听,然后还被传说中栖息在苌山洞穴的妖物掳走……熙琏能够找回儿子俊叙吗?破碎的一家能在妖怪阴影之下再度团圆吗?


◎获奖情况

  第38届韩国电影青龙奖  (2017)
  最佳女主角(提名) 廉晶雅
  技术奖(提名)

  第54届韩国电影大钟奖  (2017)
  最佳女主角(提名) 廉晶雅


影片缩略图
慢慢游社区_苌山虎.The.Mimic.2017.1080p.BluRay.x264.AC3-GYLZ.mkv_thumbs.jpg
  1. General
  2. Unique ID                      : 306680353543012365997136837750454252388 (0xE6B87CD4F3780F6140C61204BA447364)
  3. Complete name                  : C:\Users\nilibo\Documents\苌山虎.The.Mimic.2017.1080p.BluRay.x264.AC3-GYLZ.mkv
  4. Format                         : Matroska
  5. Format version                 : Version 4 / Version 2
  6. File size                      : 2.44 GiB
  7. Duration                       : 1 h 40 min
  8. Overall bit rate               : 3 487 kb/s
  9. Encoded date                   : UTC 2021-12-31 12:18:49
  10. Writing application            : mkvmerge v60.0.0 ('Are We Copies?') 64-bit
  11. Writing library                : libebml v1.4.2 + libmatroska v1.6.4

  12. Video
  13. ID                             : 2
  14. Format                         : AVC
  15. Format/Info                    : Advanced Video Codec
  16. Format profile                 : Main@L4
  17. Format settings, CABAC         : Yes
  18. Format settings, RefFrames     : 4 frames
  19. Codec ID                       : V_MPEG4/ISO/AVC
  20. Duration                       : 1 h 40 min
  21. Bit rate                       : 3 164 kb/s
  22. Width                          : 1 920 pixels
  23. Height                         : 1 036 pixels
  24. Display aspect ratio           : 1.85:1
  25. Frame rate mode                : Constant
  26. Frame rate                     : 23.976 (24000/1001) FPS
  27. Color space                    : YUV
  28. Chroma subsampling             : 4:2:0
  29. Bit depth                      : 8 bits
  30. Scan type                      : Progressive
  31. Bits/(Pixel*Frame)             : 0.066
  32. Stream size                    : 2.21 GiB (91%)
  33. Title                          : 视频源
  34. Writing library                : x264 core 157 r2935 545de2f
  35. Encoding settings              : cabac=1 / ref=2 / deblock=1:0:0 / analyse=0x1:0x111 / me=hex / subme=6 / psy=1 / psy_rd=1.00:0.00 / mixed_ref=1 / me_range=16 / chroma_me=1 / trellis=1 / 8x8dct=0 / cqm=0 / deadzone=21,11 / fast_pskip=1 / chroma_qp_offset=-2 / threads=6 / lookahead_threads=1 / sliced_threads=0 / nr=0 / decimate=1 / interlaced=0 / bluray_compat=0 / constrained_intra=0 / bframes=3 / b_pyramid=2 / b_adapt=1 / b_bias=0 / direct=1 / weightb=1 / open_gop=0 / weightp=1 / keyint=240 / keyint_min=24 / scenecut=40 / intra_refresh=0 / rc_lookahead=30 / rc=crf / mbtree=1 / crf=22.0 / qcomp=0.60 / qpmin=0 / qpmax=69 / qpstep=4 / vbv_maxrate=20000 / vbv_bufsize=25000 / crf_max=0.0 / nal_hrd=none / filler=0 / ip_ratio=1.40 / aq=1:1.00
  36. Default                        : Yes
  37. Forced                         : No
  38. Color range                    : Limited
  39. Color primaries                : BT.709
  40. Transfer characteristics       : BT.709
  41. Matrix coefficients            : BT.709

  42. Audio #1
  43. ID                             : 1
  44. Format                         : AC-3
  45. Format/Info                    : Audio Coding 3
  46. Format settings, Endianness    : Big
  47. Codec ID                       : A_AC3
  48. Duration                       : 1 h 40 min
  49. Bit rate mode                  : Constant
  50. Bit rate                       : 192 kb/s
  51. Channel(s)                     : 2 channels
  52. Channel positions              : Front: L R
  53. Sampling rate                  : 48.0 kHz
  54. Frame rate                     : 31.250 FPS (1536 SPF)
  55. Bit depth                      : 16 bits
  56. Compression mode               : Lossy
  57. Delay relative to video        : -21 ms
  58. Stream size                    : 137 MiB (6%)
  59. Title                          : 纬来台配国语
  60. Language                       : Chinese
  61. Service kind                   : Complete Main
  62. Default                        : Yes
  63. Forced                         : No

  64. Audio #2
  65. ID                             : 4
  66. Format                         : AAC
  67. Format/Info                    : Advanced Audio Codec
  68. Format profile                 : LC
  69. Codec ID                       : A_AAC
  70. Duration                       : 1 h 40 min
  71. Bit rate                       : 128 kb/s
  72. Channel(s)                     : 2 channels
  73. Channel positions              : Front: L R
  74. Sampling rate                  : 48.0 kHz
  75. Frame rate                     : 46.875 FPS (1024 SPF)
  76. Compression mode               : Lossy
  77. Delay relative to video        : -21 ms
  78. Stream size                    : 91.8 MiB (4%)
  79. Title                          : 韩语
  80. Language                       : Korean
  81. Default                        : No
  82. Forced                         : No

  83. Text
  84. ID                             : 3
  85. Format                         : UTF-8
  86. Codec ID                       : S_TEXT/UTF8
  87. Codec ID/Info                  : UTF-8 Plain Text
  88. Duration                       : 1 h 34 min
  89. Bit rate                       : 25 b/s
  90. Count of elements              : 871
  91. Stream size                    : 17.7 KiB (0%)
  92. Title                          : 简体中字
  93. Language                       : Chinese
  94. Default                        : Yes
  95. Forced                         : No

  96. Menu
  97. 00:00:00.000                   : 00:00:00.000
  98. 00:07:12.933                   : 00:07:12.932
  99. 00:15:50.491                   : 00:15:50.449
  100. 00:22:39.024                   : 00:22:38.899
  101. 00:30:37.794                   : 00:30:37.669
  102. 00:39:30.076                   : 00:39:29.951
  103. 00:50:13.719                   : 00:50:13.594
  104. 00:56:46.528                   : 00:56:46.528
  105. 01:03:23.883                   : 01:03:23.758
  106. 01:12:54.829                   : 01:12:54.704
  107. 01:25:50.604                   : 01:25:50.479
  108. 01:35:34.270                   : 01:35:34.187

复制代码

度盘去后缀.pdf

资源获取:链接:>>点击进入百度云下载<<(←购买前请先验证分享链接是否有效)                                                                                                
                          https://115.com/s/swngtya330z#
游客,需要您回复成为VIP才能查看隐藏内容








评分

参与人数 12游币 +140 精品值 +15 分享值 +12 收起 理由
望眼欲穿的人 + 1 慢慢游有你更精彩!
秤砣威武 + 1 慢慢游有你更精彩!
789666 + 40 + 1 慢慢游有你更精彩!
海岸贡献 + 1 如此棒的资源,不赞对不起慢慢游!.
waj110 + 1
离航122 + 1 资源很给力,我们很高兴!
TS天高云淡 + 50 + 1 元旦快乐!新年更上层楼!
忘川河边 + 50 + 15 + 1 慢慢游有你更精彩!
古藤书斋 + 1
StarrySky + 1 资源很给力,我们很高兴!
1002110993 + 1 神马都是浮云,资源才是硬道理!.
agxyxxzh + 1

查看全部评分

楼主精华帖
处女座→爱音乐→爱电影→更爱慢慢游!
回复

使用道具 举报

该用户从未签到

0

主题

2

帖子

3

积分

Rank: 2

阅读权限
10
游币
1
精品值
0
热心值
0
分享值
0
在线时间
0 小时
注册时间
2021-12-31
最后登录
2021-12-31
发表于 2021-12-31 22:49:23 | 显示全部楼层
楼主发贴辛苦了,谢谢楼主的精彩分享!我觉得慢慢游是注册对了!
回复 支持 反对

使用道具 举报

签到天数: 663 天

[LV.9]以坛为家II

0

主题

1494

帖子

1万

积分

Rank: 32Rank: 32Rank: 32Rank: 32Rank: 32Rank: 32Rank: 32Rank: 32

阅读权限
90
游币
8966
精品值
50
热心值
0
分享值
12
在线时间
868 小时
注册时间
2020-3-13
最后登录
2022-1-28
发表于 2021-12-31 23:03:04 | 显示全部楼层
楼主发贴辛苦了,谢谢楼主的精彩分享!我觉得慢慢游是注册对了!
回复 支持 反对

使用道具 举报

签到天数: 911 天

[LV.10]以坛为家III

21

主题

1790

帖子

5425

积分

Rank: 16Rank: 16Rank: 16Rank: 16

阅读权限
70
游币
2874
精品值
15
热心值
0
分享值
96
在线时间
539 小时
注册时间
2017-5-27
最后登录
2022-1-28
发表于 2021-12-31 23:10:49 | 显示全部楼层
支持分享,西安加油
回复 支持 反对

使用道具 举报

签到天数: 1771 天

[LV.Master]伴坛终老

75

主题

3432

帖子

2万

积分

Rank: 32Rank: 32Rank: 32Rank: 32Rank: 32Rank: 32Rank: 32Rank: 32

阅读权限
90
游币
19265
精品值
207
热心值
0
分享值
37
在线时间
1036 小时
注册时间
2015-2-28
最后登录
2022-1-28

活跃会员

发表于 2021-12-31 23:16:13 | 显示全部楼层
楼主发贴辛苦了,谢谢楼主的精彩分享!我觉得慢慢游是注册对了!
回复 支持 反对

使用道具 举报

签到天数: 459 天

[LV.9]以坛为家II

2

主题

769

帖子

1万

积分

Rank: 32Rank: 32Rank: 32Rank: 32Rank: 32Rank: 32Rank: 32Rank: 32

阅读权限
90
游币
10721
精品值
525
热心值
0
分享值
15
在线时间
306 小时
注册时间
2020-10-9
最后登录
2022-1-28

最佳新人

发表于 2021-12-31 23:44:06 | 显示全部楼层
感谢版主周末精彩分享,中国威武!西安加油!!
回复 支持 反对

使用道具 举报

签到天数: 56 天

[LV.5]常住居民I

181

主题

807

帖子

2770

积分

Rank: 8Rank: 8

阅读权限
50
游币
1691
精品值
2
热心值
0
分享值
27
在线时间
214 小时
注册时间
2021-11-26
最后登录
2022-1-28
发表于 2021-12-31 23:46:05 | 显示全部楼层
谢谢无私分享,很不错
回复 支持 反对

使用道具 举报

签到天数: 1179 天

[LV.10]以坛为家III

419

主题

2439

帖子

1万

积分

Rank: 32Rank: 32Rank: 32Rank: 32Rank: 32Rank: 32Rank: 32Rank: 32

阅读权限
90
游币
8238
精品值
5
热心值
2
分享值
30
在线时间
519 小时
注册时间
2018-8-2
最后登录
2022-1-27

最佳新人

发表于 2021-12-31 23:48:59 | 显示全部楼层
楼主太厉害了!这个资源都能找到,辛苦了!我觉得慢慢游真是个好地方!
回复 支持 反对

使用道具 举报

签到天数: 2159 天

[LV.Master]伴坛终老

16

主题

3579

帖子

1万

积分

Rank: 32Rank: 32Rank: 32Rank: 32Rank: 32Rank: 32Rank: 32Rank: 32

阅读权限
90
游币
12907
精品值
6
热心值
0
分享值
2
在线时间
2344 小时
注册时间
2016-2-4
最后登录
2022-1-28
发表于 2021-12-31 23:52:16 | 显示全部楼层
辛苦了,谢谢。
回复 支持 反对

使用道具 举报

签到天数: 29 天

[LV.4]偶尔看看III

0

主题

60

帖子

5655

积分

Rank: 16Rank: 16Rank: 16Rank: 16

阅读权限
70
游币
5178
精品值
190
热心值
0
分享值
10
在线时间
17 小时
注册时间
2021-12-30
最后登录
2022-1-28
发表于 2022-1-1 01:20:33 | 显示全部楼层
韩国演员表演胜在自然,中国演员表演痕迹学院味儿太浓,生怕别人不知道自己学过表演……谢谢光影版主的新年大餐!
回复 支持 反对

使用道具 举报

回帖须知
本站严禁灌水回复以及讽刺辱骂分享者的行为,轻者扣分警告,重者直接永久封禁。发帖前请详读:点击进入 。以免永久封禁。
 懒得打字?点击快捷回复➔➔ 
您需要登录后才可以回帖 登录 | 我要注册

本版积分规则

小黑屋|手机版|慢慢游社区 ( 站务处理service@mmyfilm.com )

GMT+8, 2022-1-28 11:08 , Processed in 1.431519 second(s), 30 queries .

Powered by Discuz! X3.4

© 2001-2013 Comsenz Inc.

快速回复 返回顶部 返回列表