慢慢游社区

 找回密码
 我要注册
搜索
查看: 334|回复: 2

[已封装] 【百度云】【自混DD5.1】蚁群.The Hive.2008.WEBRip.1080p.自混DD5.1VCD草配国英双语.2.12G

[复制链接]

签到天数: 42 天

[LV.5]常住居民I

63

主题

156

帖子

4万

积分

Rank: 64Rank: 64Rank: 64Rank: 64Rank: 64Rank: 64Rank: 64Rank: 64Rank: 64Rank: 64Rank: 64Rank: 64Rank: 64Rank: 64Rank: 64Rank: 64

阅读权限
200
游币
36834
精品值
3875
热心值
0
分享值
189
在线时间
393 小时
注册时间
2019-3-22
最后登录
2022-1-25

活跃会员热心会员突出贡献优秀版主分享达人大叔勋章音频组专属勋章黄金会员

发表于 2022-1-1 22:11:10 | 显示全部楼层 |阅读模式
本帖最后由 freerl 于 2022-1-1 22:42 编辑

音轨取自@qq339301510提供的VCD版,感谢分享!
视频、字幕取自网络
老片,低分科幻片,配音比较一般,额外自混了AC3.5.1音轨,不过效果仍然提升不大,索性就这么发了。

蚁群 The Hive (2008)
慢慢游社区_1.jpg
The Hive
导演: Peter Manus
编剧: T·S·库克
主演: Elizabeth Healey / Mark Ramsey / Jessica Reavis / Kal Weber
制片国家/地区: 美国
语言: 英语
上映日期: 2008-02-17
IMDb: tt1062161

蚁群的剧情简介 · · · · · ·
  当蚁群在一个小岛上展现出惊人的行为时,一个科学考察小队奉命前去控制。但当他们到达是,却发现这个蚁群的力量已经超越了这个世界的控制范围。蚂蚁们疯狂虐杀的背后!又有人的控制着成为了巨大的魔物,还有外星生物之类的……
慢慢游社区_蚁群.The Hive.2008.WEBRip.1080p.国英双语.mkv_20220101_215846.180.jpg 慢慢游社区_蚁群.The Hive.2008.WEBRip.1080p.国英双语.mkv_20220101_215852.480.jpg 慢慢游社区_蚁群.The Hive.2008.WEBRip.1080p.国英双语.mkv_20220101_215855.260.jpg 慢慢游社区_蚁群.The Hive.2008.WEBRip.1080p.国英双语.mkv_20220101_215918.469.jpg 慢慢游社区_蚁群.The Hive.2008.WEBRip.1080p.国英双语.mkv_20220101_215910.404.jpg 慢慢游社区_蚁群.The Hive.2008.WEBRip.1080p.国英双语.mkv_20220101_215901.386.jpg 慢慢游社区_蚁群.The Hive.2008.WEBRip.1080p.国英双语.mkv_20220101_215930.926.jpg 慢慢游社区_蚁群.The Hive.2008.WEBRip.1080p.国英双语.mkv.jpg
General
Unique ID                      : 273986767503335279517130825579679723251 (0xCE1FEE96E670DA80F26A5CADE0AC2EF3)
Format                         : Matroska
Format version                 : Version 4
File size                      : 2.13 GiB
Duration                       : 1 h 30 min
Overall bit rate               : 3 365 kb/s
Movie name                     : 蚁群.The Hive.2008.WEBRip.1080p.国英双语
Encoded date                   : UTC 2021-12-31 17:05:26
Writing application            : mkvmerge v56.1.0 ('My Friend') 64-bit
Writing library                : libebml v1.4.2 + libmatroska v1.6.4

Video
ID                             : 1
Format                         : AVC
Format/Info                    : Advanced Video Codec
Format profile                 : High@L4.1
Format settings                : CABAC / 4 Ref Frames
Format settings, CABAC         : Yes
Format settings, Reference fra : 4 frames
Codec ID                       : V_MPEG4/ISO/AVC
Duration                       : 1 h 30 min
Bit rate                       : 2 500 kb/s
Width                          : 1 920 pixels
Height                         : 1 080 pixels
Display aspect ratio           : 16:9
Frame rate mode                : Constant
Frame rate                     : 23.976 (23976/1000) FPS
Color space                    : YUV
Chroma subsampling             : 4:2:0
Bit depth                      : 8 bits
Scan type                      : Progressive
Bits/(Pixel*Frame)             : 0.050
Stream size                    : 1.58 GiB (74%)
Title                          : 蚁群.The Hive.2008.WEBRip.1080p
Writing library                : x264 core 152 r2851M ba24899
Default                        : Yes
Forced                         : No

Audio #1
ID                             : 2
Format                         : AC-3
Format/Info                    : Audio Coding 3
Commercial name                : Dolby Digital
Codec ID                       : A_AC3
Duration                       : 1 h 30 min
Bit rate mode                  : Constant
Bit rate                       : 640 kb/s
Channel(s)                     : 6 channels
Channel layout                 : L R C LFE Ls Rs
Sampling rate                  : 48.0 kHz
Frame rate                     : 31.250 FPS (1536 SPF)
Compression mode               : Lossy
Delay relative to video        : -43 ms
Stream size                    : 415 MiB (19%)
Title                          : VCD自混国语
Language                       : Chinese
Service kind                   : Complete Main
Default                        : Yes
Forced                         : No

Audio #2
ID                             : 3
Format                         : AAC LC
Format/Info                    : Advanced Audio Codec Low Complexity
Codec ID                       : A_AAC-2
Duration                       : 1 h 30 min
Bit rate                       : 224 kb/s
Channel(s)                     : 6 channels
Channel layout                 : C L R Ls Rs LFE
Sampling rate                  : 48.0 kHz
Frame rate                     : 46.875 FPS (1024 SPF)
Compression mode               : Lossy
Delay relative to video        : -43 ms
Stream size                    : 145 MiB (7%)
Title                          : 原声
Language                       : English
Default                        : No
Forced                         : No

Text
ID                             : 4
Format                         : ASS
Codec ID                       : S_TEXT/ASS
Codec ID/Info                  : Advanced Sub Station Alpha
Duration                       : 1 h 26 min
Bit rate                       : 59 b/s
Count of elements              : 669
Compression mode               : Lossless
Stream size                    : 37.5 KiB (0%)
Title                          : 中字
Default                        : Yes
Forced                         : No

链接:>>点击进入百度云下载<<(←购买前请先验证分享链接是否有效)
此处内容付费可见

点击下方支付。



评分

参与人数 2游币 +50 精品值 +15 分享值 +2 收起 理由
asdasd + 1
忘川河边 + 50 + 15 + 1 慢慢游有你更精彩!

查看全部评分

楼主精华帖
回复

使用道具 举报

签到天数: 2516 天

[LV.Master]伴坛终老

26

主题

5847

帖子

2万

积分

Rank: 32Rank: 32Rank: 32Rank: 32Rank: 32Rank: 32Rank: 32Rank: 32

阅读权限
90
游币
14966
精品值
566
热心值
0
分享值
1
在线时间
3106 小时
注册时间
2014-12-10
最后登录
2022-1-28
发表于 2022-1-1 22:45:52 | 显示全部楼层
论坛不能没有像楼主这样的人才啊!当然我会一直支持慢慢游。
回复 支持 反对

使用道具 举报

签到天数: 128 天

[LV.7]常住居民III

0

主题

1254

帖子

5371

积分

Rank: 16Rank: 16Rank: 16Rank: 16

阅读权限
70
游币
3987
精品值
0
热心值
0
分享值
0
在线时间
130 小时
注册时间
2021-9-15
最后登录
2022-1-28
发表于 2022-1-4 08:33:36 | 显示全部楼层
其实我一直觉得楼主是资源大神!慢慢游有你们更精彩!
回复 支持 反对

使用道具 举报

回帖须知
本站严禁灌水回复以及讽刺辱骂分享者的行为,轻者扣分警告,重者直接永久封禁。发帖前请详读:点击进入 。以免永久封禁。
 懒得打字?点击快捷回复➔➔ 
您需要登录后才可以回帖 登录 | 我要注册

本版积分规则

小黑屋|手机版|慢慢游社区 ( 站务处理service@mmyfilm.com )

GMT+8, 2022-1-28 11:05 , Processed in 0.410165 second(s), 32 queries .

Powered by Discuz! X3.4

© 2001-2013 Comsenz Inc.

快速回复 返回顶部 返回列表