慢慢游社区

 找回密码
 我要注册
搜索
查看: 382|回复: 3

[已封装] 【百度云】【自混DD5.1】死亡航班.Living Dead Outbreak on a Plane.2007.BluRay.1080p.VCD国英双语

[复制链接]

签到天数: 42 天

[LV.5]常住居民I

63

主题

156

帖子

4万

积分

Rank: 64Rank: 64Rank: 64Rank: 64Rank: 64Rank: 64Rank: 64Rank: 64Rank: 64Rank: 64Rank: 64Rank: 64Rank: 64Rank: 64Rank: 64Rank: 64

阅读权限
200
游币
36834
精品值
3875
热心值
0
分享值
189
在线时间
393 小时
注册时间
2019-3-22
最后登录
2022-1-25

活跃会员热心会员突出贡献优秀版主分享达人大叔勋章音频组专属勋章黄金会员

发表于 2022-1-1 22:26:02 | 显示全部楼层 |阅读模式
音轨取自@qq339301510提供的VCD视频,感谢分享!
视频、字幕取自网络
搜qq339301510大神的分享碟片后,根据封面图片一路找下来,兜兜转转才知道片名叫死亡航班,论坛搜了下,有前辈分享过,但是失效了,于是下载了下,也自混了ac3 5.1,试听效果还不错,感觉配音不是那么业余,值得一看的僵尸片!

死亡航班 Living Dead: Outbreak on a Plane (2007)
慢慢游社区_1.jpg
导演: Scott Thomas
编剧: Sidney Iwanter / Mark Onspaugh
主演: Michael P. Gaffney / David Feldman / Bryeon Earle / Kristen Kerr
类型: 动作 / 恐怖
官方网站: http://www.plane-dead.com/
制片国家/地区: 美国
语言: 英语
上映日期: 2007-04-06
片长: USA: 89 分钟
又名: 飞机上有僵尸 / Flight of the Living Dead / Flight of the Living Dead: Outbreak on a Plane / Plane Dead
IMDb: tt0780583

死亡航班的剧情简介 · · · · · ·
  一架从洛杉矶飞往巴黎的747航班上,搭载了几名不速之客。他们是来自美国军方的科学家,现在正计划带着一具尸体逃离美国。此前,他们在CIA的授意下对疟疾病毒进行研究,旨在开发出适合战争需要的生化武器,最终他们一种神奇的病毒应运而生。被该病毒感染的人其生命力、爆发力以及意志都空前增强,与之相对疼痛感和恐惧心理则降至最低,即使身负重伤他们也能勇往直前,决不退缩。科学家们所带的尸体正携带这种恐怖的病毒。
  飞机在空中遭遇强烈的雷阵雨,剧烈的颠簸将行李舱内的尸体释放出来,并迅速化身为毫无人性、嗜血如命的恐怖僵尸。才从暴风雨的侵袭中舒缓过来的乘客们怎么也没想到,机舱很快将变成充满杀戮的血腥地狱……
慢慢游社区_死亡航班.Living Dead Outbreak on a Plane.2007.BluRay.1080p.VCD国英双语.mkv_20220.jpg 慢慢游社区_死亡航班.Living Dead Outbreak on a Plane.2007.BluRay.1080p.VCD国英双语.mkv_20220.jpg 慢慢游社区_死亡航班.Living Dead Outbreak on a Plane.2007.BluRay.1080p.VCD国英双语.mkv_20220.jpg 慢慢游社区_死亡航班.Living Dead Outbreak on a Plane.2007.BluRay.1080p.VCD国英双语.mkv_20220.jpg 慢慢游社区_死亡航班.Living Dead Outbreak on a Plane.2007.BluRay.1080p.VCD国英双语.mkv_20220.jpg 慢慢游社区_死亡航班.Living Dead Outbreak on a Plane.2007.BluRay.1080p.VCD国英双语.mkv_20220.jpg 慢慢游社区_死亡航班.Living Dead Outbreak on a Plane.2007.BluRay.1080p.VCD国英双语.mkv_20220.jpg 慢慢游社区_死亡航班.Living Dead Outbreak on a Plane.2007.BluRay.1080p.VCD国英双语.mkv_20220.jpg 慢慢游社区_死亡航班.Living Dead Outbreak on a Plane.2007.BluRay.1080p.VCD国英双语.mkv.jpg
General
Unique ID                      : 235109858060686056962475273685785572456 (0xB0E082F74C55AF12CED07262331EF468)
Format                         : Matroska
Format version                 : Version 4
File size                      : 2.21 GiB
Duration                       : 1 h 34 min
Overall bit rate               : 3 365 kb/s
Movie name                     : 死亡航班.Living Dead Outbreak on a Plane.2007.BluRay.1080p.国英双语
Encoded date                   : UTC 2021-12-31 00:15:49
Writing application            : mkvmerge v56.1.0 ('My Friend') 64-bit
Writing library                : libebml v1.4.2 + libmatroska v1.6.4

Video
ID                             : 1
Format                         : AVC
Format/Info                    : Advanced Video Codec
Format profile                 : High@L4.1
Format settings                : CABAC / 4 Ref Frames
Format settings, CABAC         : Yes
Format settings, Reference fra : 4 frames
Codec ID                       : V_MPEG4/ISO/AVC
Duration                       : 1 h 34 min
Bit rate                       : 2 500 kb/s
Width                          : 1 920 pixels
Height                         : 1 080 pixels
Display aspect ratio           : 16:9
Frame rate mode                : Constant
Frame rate                     : 23.976 (23976/1000) FPS
Color space                    : YUV
Chroma subsampling             : 4:2:0
Bit depth                      : 8 bits
Scan type                      : Progressive
Bits/(Pixel*Frame)             : 0.050
Stream size                    : 1.64 GiB (74%)
Title                          : 死亡航班.Living Dead Outbreak on a Plane.2007.BluRay.1080p
Writing library                : x264 core 152 r2851M ba24899
Default                        : Yes
Forced                         : No

Audio #1
ID                             : 2
Format                         : AC-3
Format/Info                    : Audio Coding 3
Commercial name                : Dolby Digital
Codec ID                       : A_AC3
Duration                       : 1 h 34 min
Bit rate mode                  : Constant
Bit rate                       : 640 kb/s
Channel(s)                     : 6 channels
Channel layout                 : L R C LFE Ls Rs
Sampling rate                  : 48.0 kHz
Frame rate                     : 31.250 FPS (1536 SPF)
Compression mode               : Lossy
Delay relative to video        : -43 ms
Stream size                    : 430 MiB (19%)
Title                          : VCD国配
Language                       : Chinese
Service kind                   : Complete Main
Default                        : Yes
Forced                         : No

Audio #2
ID                             : 3
Format                         : AAC LC
Format/Info                    : Advanced Audio Codec Low Complexity
Codec ID                       : A_AAC-2
Duration                       : 1 h 34 min
Bit rate                       : 224 kb/s
Channel(s)                     : 6 channels
Channel layout                 : C L R Ls Rs LFE
Sampling rate                  : 48.0 kHz
Frame rate                     : 46.875 FPS (1024 SPF)
Compression mode               : Lossy
Delay relative to video        : -43 ms
Stream size                    : 151 MiB (7%)
Title                          : 原声
Language                       : English
Default                        : No
Forced                         : No

Text
ID                             : 4
Format                         : ASS
Codec ID                       : S_TEXT/ASS
Codec ID/Info                  : Advanced Sub Station Alpha
Duration                       : 1 h 27 min
Bit rate                       : 86 b/s
Count of elements              : 1003
Compression mode               : Lossless
Stream size                    : 55.7 KiB (0%)
Title                          : 中字
Language                       : Chinese
Default                        : Yes
Forced                         : No

链接:>>点击进入百度云下载<<(←购买前请先验证分享链接是否有效)
此处内容付费可见

点击下方支付。



评分

参与人数 2游币 +50 精品值 +15 分享值 +2 收起 理由
asdasd + 1
忘川河边 + 50 + 15 + 1 慢慢游有你更精彩!

查看全部评分

楼主精华帖
回复

使用道具 举报

签到天数: 2516 天

[LV.Master]伴坛终老

26

主题

5847

帖子

2万

积分

Rank: 32Rank: 32Rank: 32Rank: 32Rank: 32Rank: 32Rank: 32Rank: 32

阅读权限
90
游币
14966
精品值
566
热心值
0
分享值
1
在线时间
3106 小时
注册时间
2014-12-10
最后登录
2022-1-28
发表于 2022-1-1 22:45:22 | 显示全部楼层
感谢楼主的无私分享!要想慢慢游好 就靠你我他
回复 支持 反对

使用道具 举报

签到天数: 128 天

[LV.7]常住居民III

0

主题

1254

帖子

5371

积分

Rank: 16Rank: 16Rank: 16Rank: 16

阅读权限
70
游币
3987
精品值
0
热心值
0
分享值
0
在线时间
130 小时
注册时间
2021-9-15
最后登录
2022-1-28
发表于 2022-1-4 08:33:03 | 显示全部楼层
楼主如此诚意的分享如此精彩的内容,必须赞!我想我是一天也不能离开慢慢游。
回复 支持 反对

使用道具 举报

签到天数: 17 天

[LV.4]偶尔看看III

0

主题

39

帖子

121

积分

Rank: 4

阅读权限
30
游币
77
精品值
0
热心值
0
分享值
0
在线时间
5 小时
注册时间
2021-12-31
最后登录
2022-1-26
发表于 2022-1-6 10:23:25 | 显示全部楼层
楼主发贴辛苦了,谢谢楼主的精彩分享!我觉得慢慢游是注册对了!
回复 支持 反对

使用道具 举报

回帖须知
本站严禁灌水回复以及讽刺辱骂分享者的行为,轻者扣分警告,重者直接永久封禁。发帖前请详读:点击进入 。以免永久封禁。
 懒得打字?点击快捷回复➔➔ 
您需要登录后才可以回帖 登录 | 我要注册

本版积分规则

小黑屋|手机版|慢慢游社区 ( 站务处理service@mmyfilm.com )

GMT+8, 2022-1-28 10:38 , Processed in 0.440149 second(s), 35 queries .

Powered by Discuz! X3.4

© 2001-2013 Comsenz Inc.

快速回复 返回顶部 返回列表