慢慢游社区

 找回密码
 我要注册
搜索
查看: 363|回复: 3

[已封装] 【百度云】【自混DD5.1】零下17℃之寒颤\鹿神.Wendigo.2001.BluRay.1080p.国英双语.2.16G

[复制链接]

签到天数: 42 天

[LV.5]常住居民I

63

主题

156

帖子

4万

积分

Rank: 64Rank: 64Rank: 64Rank: 64Rank: 64Rank: 64Rank: 64Rank: 64Rank: 64Rank: 64Rank: 64Rank: 64Rank: 64Rank: 64Rank: 64Rank: 64

阅读权限
200
游币
36834
精品值
3875
热心值
0
分享值
189
在线时间
393 小时
注册时间
2019-3-22
最后登录
2022-1-25

活跃会员热心会员突出贡献优秀版主分享达人大叔勋章音频组专属勋章黄金会员

发表于 2022-1-1 22:50:15 | 显示全部楼层 |阅读模式
音轨取自@qq339301510提供的VCD视频,感谢分享!
视频取自网络,无字幕
还是搜qq339301510大神的分享碟片资源,VCD片名叫鹿神,找了半天才确定了这个片名,搜了下没有人分享,自混了AC3 5.1音轨,豆瓣没有评分,分值应该不高,配音也比较一般。

零下17℃之寒颤 Wendigo (2001)
慢慢游社区_1.jpg
Wendigo
导演: Larry Fessenden
编剧: Larry Fessenden
主演: Jake Weber 杰克•韦伯 / Patricia Clarkson
类型: 悬疑 / 惊悚 / 恐怖
制片国家/地区: 美国
语言: 英语
上映日期: 2004-01-17
片长: 91 分钟
又名: 鹿神传说 / 雪怪/恶夜饕餮
IMDb: tt0275067

零下17℃之寒颤的剧情简介 · · · · · ·
  供职于纽约曼哈顿一家广告代理机构的职业摄影师乔治(Jake Weber 杰克•韦伯 饰)每日里过着紧张忙碌的生活,为了缓解工作所带来的巨大压力,他带着妻子金(Patricia Clarkson 饰)和儿子米尔斯(Erik Per Sullivan 饰)驱车前往山中的小屋度假。
  不过他们的旅途并不顺利,途中乔治的汽车撞死一只跑到路中央的鹿,并因此和自称猎人的奥提斯(John Speredakos 饰)发生争吵。抵达目的地后,一家人始终为一种莫名的恐惧和压迫感所困扰。继而又从便利店老板口中得知了半人半鹿怪物Wendigo的传说。令他们怎么也想不到的是,这个传说正逐渐变成现实……
慢慢游社区_零下17℃之寒颤.Wendigo.2001.BluRay.1080p.国英双语.mkv_20220101_223816.881.jpg 慢慢游社区_零下17℃之寒颤.Wendigo.2001.BluRay.1080p.国英双语.mkv_20220101_223820.469.jpg 慢慢游社区_零下17℃之寒颤.Wendigo.2001.BluRay.1080p.国英双语.mkv_20220101_223825.652.jpg 慢慢游社区_零下17℃之寒颤.Wendigo.2001.BluRay.1080p.国英双语.mkv_20220101_223832.253.jpg 慢慢游社区_零下17℃之寒颤.Wendigo.2001.BluRay.1080p.国英双语.mkv_20220101_223835.164.jpg 慢慢游社区_零下17℃之寒颤.Wendigo.2001.BluRay.1080p.国英双语.mkv_20220101_223837.262.jpg 慢慢游社区_零下17℃之寒颤.Wendigo.2001.BluRay.1080p.国英双语.mkv_20220101_223843.932.jpg 慢慢游社区_零下17℃之寒颤.Wendigo.2001.BluRay.1080p.国英双语.mkv_20220101_223856.493.jpg 慢慢游社区_零下17℃之寒颤.Wendigo.2001.BluRay.1080p.国英双语.mkv_20220101_223845.996.jpg 慢慢游社区_零下17℃之寒颤.Wendigo.2001.BluRay.1080p.国英双语.mkv.jpg
General
Unique ID                      : 277948646894050016511800148971581457440 (0xD11AF65319C97C599BAEB5CA3F1DC420)
Format                         : Matroska
Format version                 : Version 4
File size                      : 2.17 GiB
Duration                       : 1 h 32 min
Overall bit rate               : 3 364 kb/s
Movie name                     : 零下17℃之寒颤.Wendigo.2001.BluRay.1080p.国英双语
Encoded date                   : UTC 2021-12-30 22:22:35
Writing application            : mkvmerge v56.1.0 ('My Friend') 64-bit
Writing library                : libebml v1.4.2 + libmatroska v1.6.4

Video
ID                             : 1
Format                         : AVC
Format/Info                    : Advanced Video Codec
Format profile                 : High@L4.1
Format settings                : CABAC / 4 Ref Frames
Format settings, CABAC         : Yes
Format settings, Reference fra : 4 frames
Codec ID                       : V_MPEG4/ISO/AVC
Duration                       : 1 h 32 min
Bit rate                       : 2 500 kb/s
Width                          : 1 914 pixels
Height                         : 1 080 pixels
Display aspect ratio           : 16:9
Frame rate mode                : Constant
Frame rate                     : 23.976 (23976/1000) FPS
Color space                    : YUV
Chroma subsampling             : 4:2:0
Bit depth                      : 8 bits
Scan type                      : Progressive
Bits/(Pixel*Frame)             : 0.050
Stream size                    : 1.61 GiB (74%)
Writing library                : x264 core 152 r2851M ba24899
Default                        : Yes
Forced                         : No

Audio #1
ID                             : 2
Format                         : AC-3
Format/Info                    : Audio Coding 3
Commercial name                : Dolby Digital
Codec ID                       : A_AC3
Duration                       : 1 h 32 min
Bit rate mode                  : Constant
Bit rate                       : 640 kb/s
Channel(s)                     : 6 channels
Channel layout                 : L R C LFE Ls Rs
Sampling rate                  : 48.0 kHz
Frame rate                     : 31.250 FPS (1536 SPF)
Compression mode               : Lossy
Delay relative to video        : -43 ms
Stream size                    : 422 MiB (19%)
Language                       : Chinese
Service kind                   : Complete Main
Default                        : Yes
Forced                         : No

Audio #2
ID                             : 3
Format                         : AAC LC
Format/Info                    : Advanced Audio Codec Low Complexity
Codec ID                       : A_AAC-2
Duration                       : 1 h 32 min
Bit rate                       : 224 kb/s
Channel(s)                     : 6 channels
Channel layout                 : C L R Ls Rs LFE
Sampling rate                  : 48.0 kHz
Frame rate                     : 46.875 FPS (1024 SPF)
Compression mode               : Lossy
Delay relative to video        : -43 ms
Stream size                    : 148 MiB (7%)
Language                       : English
Default                        : No
Forced                         : No


链接:>>点击进入百度云下载<<(←购买前请先验证分享链接是否有效)
此处内容付费可见

点击下方支付。




评分

参与人数 3游币 +50 精品值 +15 分享值 +3 收起 理由
asdasd + 1
古藤书斋 + 1
忘川河边 + 50 + 15 + 1 慢慢游有你更精彩!

查看全部评分

楼主精华帖
回复

使用道具 举报

签到天数: 12 天

[LV.3]偶尔看看II

0

主题

57

帖子

82

积分

Rank: 2

阅读权限
10
游币
18
精品值
0
热心值
0
分享值
0
在线时间
7 小时
注册时间
2021-12-3
最后登录
2022-1-12
发表于 2022-1-3 00:44:26 | 显示全部楼层
楼主发贴辛苦了,谢谢楼主的精彩分享!我觉得慢慢游是注册对了!
回复 支持 反对

使用道具 举报

签到天数: 128 天

[LV.7]常住居民III

0

主题

1254

帖子

5371

积分

Rank: 16Rank: 16Rank: 16Rank: 16

阅读权限
70
游币
3987
精品值
0
热心值
0
分享值
0
在线时间
130 小时
注册时间
2021-9-15
最后登录
2022-1-28
发表于 2022-1-4 08:32:32 | 显示全部楼层
感谢楼主的无私分享!要想慢慢游好 就靠你我他
回复 支持 反对

使用道具 举报

签到天数: 91 天

[LV.6]常住居民II

14

主题

399

帖子

1万

积分

Rank: 32Rank: 32Rank: 32Rank: 32Rank: 32Rank: 32Rank: 32Rank: 32

阅读权限
90
游币
11249
精品值
1102
热心值
0
分享值
0
在线时间
507 小时
注册时间
2021-9-7
最后登录
2022-1-28
发表于 5 天前 | 显示全部楼层
可能是草台,没有说明
回复 支持 反对

使用道具 举报

回帖须知
本站严禁灌水回复以及讽刺辱骂分享者的行为,轻者扣分警告,重者直接永久封禁。发帖前请详读:点击进入 。以免永久封禁。
 懒得打字?点击快捷回复➔➔ 
您需要登录后才可以回帖 登录 | 我要注册

本版积分规则

小黑屋|手机版|慢慢游社区 ( 站务处理service@mmyfilm.com )

GMT+8, 2022-1-28 10:42 , Processed in 0.440348 second(s), 32 queries .

Powered by Discuz! X3.4

© 2001-2013 Comsenz Inc.

快速回复 返回顶部 返回列表