慢慢游社区

 找回密码
 我要注册
搜索
查看: 1093|回复: 90

[音频组作品] [免费资源贴][百度/阿里盘][韩国][门锁.Door Lock .2018.BluRay.1080P.x264.AC3-GYLZ./mkv/3.13GB][国韩双语硬中字]

  [复制链接]

签到天数: 1858 天

[LV.Master]伴坛终老

170

主题

3033

帖子

6万

积分

一个一直走在路上寂寞并快乐着的影视工作者

Rank: 64Rank: 64Rank: 64Rank: 64Rank: 64Rank: 64Rank: 64Rank: 64Rank: 64Rank: 64Rank: 64Rank: 64Rank: 64Rank: 64Rank: 64Rank: 64

阅读权限
255
游币
22900
精品值
19696
热心值
3
分享值
606
在线时间
1925 小时
注册时间
2015-10-16
最后登录
2022-1-11

活跃会员热心会员突出贡献正太勋章色狼勋章猥琐勋章大叔勋章音频组专属勋章爱心勋章灌水之王最佳新人御姐勋章色女勋章纯洁勋章萝莉勋章处女座卯兔射手座子鼠

发表于 2022-1-10 16:38:58 | 显示全部楼层 |阅读模式
本帖最后由 光影流转 于 2022-1-10 18:32 编辑
引言:这两天没事儿看了看白百何、白客等主演的国产影片《门锁》,也是感慨良多,,后知道是翻拍自韩国影片,于是心血来潮,找到了这部韩版电影《门锁》观看,至于剧情如何,演的如何,整体反响如何,这里就不做评价了,大家自己看吧,,(注:回复需比照国产版影片《门锁》进行剖析探讨与评价,认真回复者有精品值奖励,也算是新年福利吧!)

台配国语素材由"Anzhuo"提供东森电影台录制版,在此感谢!
视频素材取自BTPT,后大鸭梨2PASS压制,非H265压制,同样清晰


另有会员私信我反映度盘资源在线观看无字幕,那是度盘系统屏蔽的问题
(度盘只识别硬字幕)若封装的(软)字幕,只有下载后播放器里才有显示
为解决度盘会员在线观看问题,这次特机译自制了ASS字幕压进了视频(硬中字)
硬字幕它什么盘也屏蔽不了,现115盘、迅雷盘、阿里盘线上观看倒是有字幕加持
所以同时分享一个阿里云链接,疫情期间继续为大家免费分享!西安加油!!抗疫必胜!!!

                                                         
影片海报
慢慢游社区_360截图20220109151047917.jpg

影片信息

◎译  名 门锁/锁命危机(台)/Door Lock
◎片  名 도어락
◎年  代 2018
◎产  地 韩国
◎类  别 悬疑/惊悚
◎语  言 台配国语 /  韩语
◎上映日期 2018-12-05(韩国)
◎IMDb评分  6.4/10 from 2312 users
◎IMDb链接  https://www.imdb.com/title/tt9402676/
◎豆瓣评分 6.9/10 from 46870 users
◎豆瓣链接 https://douban.com/subject/27617348/
◎片  长 102分钟
◎导  演 李权 Kwon Lee
◎编  剧 朴正熙 Jeong-hee Park / 李权 Kwon Lee / 阿尔贝托·马里尼 Alberto Marini
◎主  演 孔晓振 Hyo-jin Kong
       金叡园 Ye-won Kim
       金成伍 Seong-oh Kim
       赵福来 Bok-rae Jo
       李家燮 Ga-seop Lee
       李天熙 Cheon-hee Lee
       金在华 Jae-hwa Kim
       金光奎 Kwang-gyu Kim
       韩智恩 Han Ji Eun
       车烨 Cha Yup
       裴明真 Bae Myung-jin
       郑钟宇 Jung Jong-woo
       李钟求 Jong-goo Lee
       尹钟硕 Jong-suk Yoon
       李相熹 Jang-yoo  Lee
       李宏内 Hong-nae Lee
       张宥 Yoo Jang

◎标  签 韩国 | 惊悚 | 犯罪 | 悬疑 | 惊悚悬疑 | 恐怖 | 剧情 | 2018

◎简  介


  熙攘喧嚣的大都会里,供职于某银行的独身女子赵京敏过着朝九晚五的生活,独自穿梭在城市的街头巷尾。这一晚,京敏下班回到家,发现家门的密码锁盖子被人打开。进屋后不久,她突然听到门口传来按密码锁的声音,更有人试图扭开门把手。虽然没有看到任何人,但恐慌的京敏还是选择报警,然而警方却以未发生侵入和伤害行为而拒绝进一步调查。夜渐渐深了,在极不正常的深度睡眠中,似乎有什么人坦然自若地走入京敏的房间,紧紧抱着这个女孩入睡。接下来的日子,京敏的精神状态越来越差,无理的客户更是让她倍感恐慌。 她开始变得不知所措,身边每个男人似乎都变得无比可疑,而可怕的事情终于发生……

影片缩略图
慢慢游社区_门锁.Door Lock .2018.BluRay.1080P.x264.AC3-GYLZ.mkv_thumbs.png
  1. General
  2. Unique ID                      : 107783232670047103632577061031409582238 (0x51164BA7DE2B115BAF89E2ACEF23809E)
  3. Complete name                  : F:\压制视频成品\门锁.Door Lock .2018.BluRay.1080P.x264.AC3-GYLZ.mkv
  4. Format                         : Matroska
  5. Format version                 : Version 4 / Version 2
  6. File size                      : 3.13 GiB
  7. Duration                       : 1 h 42 min
  8. Overall bit rate               : 4 391 kb/s
  9. Encoded date                   : UTC 2022-01-10 16:21:25
  10. Writing application            : mkvmerge v60.0.0 ('Are We Copies?') 64-bit
  11. Writing library                : libebml v1.4.2 + libmatroska v1.6.4

  12. Video
  13. ID                             : 2
  14. Format                         : AVC
  15. Format/Info                    : Advanced Video Codec
  16. Format profile                 : Main@L4.1
  17. Format settings, CABAC         : Yes
  18. Format settings, RefFrames     : 2 frames
  19. Format settings, GOP           : M=3, N=25
  20. Muxing mode                    : Container profile=Baseline@3.0
  21. Codec ID                       : V_MPEG4/ISO/AVC
  22. Duration                       : 1 h 42 min
  23. Bit rate                       : 4 005 kb/s
  24. Width                          : 1 920 pixels
  25. Height                         : 1 080 pixels
  26. Display aspect ratio           : 16:9
  27. Frame rate mode                : Constant
  28. Frame rate                     : 23.976 (24000/1001) FPS
  29. Color space                    : YUV
  30. Chroma subsampling             : 4:2:0
  31. Bit depth                      : 8 bits
  32. Scan type                      : Progressive
  33. Bits/(Pixel*Frame)             : 0.081
  34. Stream size                    : 2.86 GiB (91%)
  35. Title                          : 视频源
  36. Default                        : Yes
  37. Forced                         : No

  38. Audio #1
  39. ID                             : 1
  40. Format                         : AC-3
  41. Format/Info                    : Audio Coding 3
  42. Format settings, Endianness    : Big
  43. Codec ID                       : A_AC3
  44. Duration                       : 1 h 42 min
  45. Bit rate mode                  : Constant
  46. Bit rate                       : 256 kb/s
  47. Channel(s)                     : 2 channels
  48. Channel positions              : Front: L R
  49. Sampling rate                  : 48.0 kHz
  50. Frame rate                     : 31.250 FPS (1536 SPF)
  51. Bit depth                      : 16 bits
  52. Compression mode               : Lossy
  53. Stream size                    : 187 MiB (6%)
  54. Title                          : 台配国语
  55. Language                       : Chinese
  56. Service kind                   : Complete Main
  57. Default                        : Yes
  58. Forced                         : No

  59. Audio #2
  60. ID                             : 3
  61. Format                         : AAC
  62. Format/Info                    : Advanced Audio Codec
  63. Format profile                 : LC
  64. Codec ID                       : A_AAC
  65. Duration                       : 1 h 42 min
  66. Bit rate                       : 128 kb/s
  67. Channel(s)                     : 2 channels
  68. Channel positions              : Front: L R
  69. Sampling rate                  : 44.1 kHz
  70. Frame rate                     : 43.066 FPS (1024 SPF)
  71. Compression mode               : Lossy
  72. Stream size                    : 93.5 MiB (3%)
  73. Title                          : 韩语
  74. Language                       : Korean
  75. Default                        : Yes
  76. Forced                         : No

复制代码

度盘去后缀.pdf


资源获取:链接:>>点击进入百度云下载<<(←购买前请先验证分享链接是否有效)
游客,需要您回复成为VIP才能查看隐藏内容

点评

注:精品值只评给针对两部电影做出剖析探讨与评价者!  发表于 2022-1-10 18:34

评分

参与人数 11游币 +50 精品值 +15 分享值 +11 收起 理由
逍遥御 + 1 慢慢游有你更精彩!
望眼欲穿的人 + 1 严禁灌水,满三次封号!
asdasd + 1
zmn321 + 1 资源很给力,我们很高兴!
agxyxxzh + 1
古藤书斋 + 1
bubugao + 1
jdbzbzrwrlwsc + 1
1002110993 + 1 资源很给力,我们很高兴!
忘川河边 + 50 + 15 + 1 慢慢游有你更精彩!
liu8618331 + 1 慢慢游有你更精彩!

查看全部评分

楼主精华帖
处女座→爱音乐→爱电影→更爱慢慢游!
回复

使用道具 举报

签到天数: 1858 天

[LV.Master]伴坛终老

170

主题

3033

帖子

6万

积分

一个一直走在路上寂寞并快乐着的影视工作者

Rank: 64Rank: 64Rank: 64Rank: 64Rank: 64Rank: 64Rank: 64Rank: 64Rank: 64Rank: 64Rank: 64Rank: 64Rank: 64Rank: 64Rank: 64Rank: 64

阅读权限
255
游币
22900
精品值
19696
热心值
3
分享值
606
在线时间
1925 小时
注册时间
2015-10-16
最后登录
2022-1-11

活跃会员热心会员突出贡献正太勋章色狼勋章猥琐勋章大叔勋章音频组专属勋章爱心勋章灌水之王最佳新人御姐勋章色女勋章纯洁勋章萝莉勋章处女座卯兔射手座子鼠

 楼主| 发表于 7 天前 | 显示全部楼层
本帖最后由 光影流转 于 2022-1-11 15:19 编辑
sgwdd 发表于 2022-1-11 12:23
说一下自己的经历吧
大概在2014年左右(时间有点久记不清了)

对经历的感同身受固然重要,但电影论坛主要探讨的是电影内容和对该两部电影的认知剖析评价,可以先看完两部再来评价!
处女座→爱音乐→爱电影→更爱慢慢游!
回复 支持 反对

使用道具 举报

签到天数: 464 天

[LV.9]以坛为家II

0

主题

766

帖子

1652

积分

Rank: 8Rank: 8

阅读权限
50
游币
658
精品值
0
热心值
0
分享值
0
在线时间
228 小时
注册时间
2020-2-27
最后登录
2022-1-18
发表于 2022-1-10 16:42:14 | 显示全部楼层
楼主如此诚意的分享如此精彩的内容,必须赞!我想我是一天也不能离开慢慢游。
回复 支持 反对

使用道具 举报

签到天数: 425 天

[LV.9]以坛为家II

0

主题

622

帖子

1970

积分

Rank: 8Rank: 8

阅读权限
50
游币
1194
精品值
0
热心值
0
分享值
0
在线时间
154 小时
注册时间
2019-2-17
最后登录
2022-1-18
发表于 2022-1-10 17:19:17 | 显示全部楼层
谢谢楼主的无私分享,先下载看看再作评论。
回复 支持 反对

使用道具 举报

签到天数: 653 天

[LV.9]以坛为家II

0

主题

1474

帖子

1万

积分

Rank: 32Rank: 32Rank: 32Rank: 32Rank: 32Rank: 32Rank: 32Rank: 32

阅读权限
90
游币
8913
精品值
50
热心值
0
分享值
12
在线时间
851 小时
注册时间
2020-3-13
最后登录
2022-1-18
发表于 2022-1-10 17:36:57 | 显示全部楼层
楼主发贴辛苦了,谢谢楼主的精彩分享!我觉得慢慢游是注册对了!
回复 支持 反对

使用道具 举报

签到天数: 20 天

[LV.4]偶尔看看III

0

主题

39

帖子

5585

积分

Rank: 16Rank: 16Rank: 16Rank: 16

阅读权限
70
游币
5114
精品值
200
热心值
0
分享值
10
在线时间
12 小时
注册时间
2021-12-30
最后登录
2022-1-18
发表于 2022-1-10 17:57:38 | 显示全部楼层
本帖最后由 海岸贡献 于 2022-1-10 17:59 编辑

感谢版主无私分享,看完后评价一下吧
回复 支持 反对

使用道具 举报

签到天数: 1415 天

[LV.10]以坛为家III

3

主题

3073

帖子

6058

积分

Rank: 16Rank: 16Rank: 16Rank: 16

阅读权限
70
游币
1271
精品值
1
热心值
2
分享值
0
在线时间
1708 小时
注册时间
2018-1-14
最后登录
2022-1-18

热心会员

发表于 2022-1-10 18:07:20 | 显示全部楼层
既然你诚信诚意的推荐了,那我就满怀欣喜的看看!
回复 支持 反对

使用道具 举报

签到天数: 880 天

[LV.10]以坛为家III

0

主题

4146

帖子

5444

积分

Rank: 16Rank: 16Rank: 16Rank: 16

阅读权限
70
游币
39
精品值
10
热心值
0
分享值
0
在线时间
1239 小时
注册时间
2019-6-13
最后登录
2022-1-18
发表于 2022-1-10 18:12:17 | 显示全部楼层
感谢楼主的无私分享!要想慢慢游好 就靠你我他
回复 支持 反对

使用道具 举报

签到天数: 2133 天

[LV.Master]伴坛终老

3

主题

5986

帖子

7663

积分

Rank: 16Rank: 16Rank: 16Rank: 16

阅读权限
70
游币
345
精品值
17
热心值
0
分享值
1
在线时间
1296 小时
注册时间
2015-1-17
最后登录
2022-1-18
发表于 2022-1-10 18:22:33 | 显示全部楼层
楼主发贴辛苦了,谢谢楼主的精彩分享!我觉得慢慢游是注册对了!
回复 支持 反对

使用道具 举报

签到天数: 1942 天

[LV.Master]伴坛终老

0

主题

4353

帖子

1万

积分

Rank: 32Rank: 32Rank: 32Rank: 32Rank: 32Rank: 32Rank: 32Rank: 32

阅读权限
90
游币
8426
精品值
81
热心值
0
分享值
0
在线时间
2731 小时
注册时间
2016-2-9
最后登录
2022-1-18

活跃会员

发表于 2022-1-10 18:27:09 | 显示全部楼层
这东西我收了!谢谢楼主!有慢慢游真好!
回复 支持 反对

使用道具 举报

签到天数: 1955 天

[LV.Master]伴坛终老

0

主题

3281

帖子

5776

积分

Rank: 16Rank: 16Rank: 16Rank: 16

阅读权限
70
游币
636
精品值
0
热心值
0
分享值
0
在线时间
1859 小时
注册时间
2015-10-1
最后登录
2022-1-18
发表于 2022-1-10 18:27:42 | 显示全部楼层
本资源找了很久了,终于在慢慢游找到,感谢您的分享。祝慢慢游越来越好!
回复 支持 反对

使用道具 举报

回帖须知
本站严禁灌水回复以及讽刺辱骂分享者的行为,轻者扣分警告,重者直接永久封禁。发帖前请详读:点击进入 。以免永久封禁。
 懒得打字?点击快捷回复➔➔ 
您需要登录后才可以回帖 登录 | 我要注册

本版积分规则

小黑屋|手机版|慢慢游社区 ( 站务处理service@mmyfilm.com )

GMT+8, 2022-1-18 21:47 , Processed in 0.549686 second(s), 33 queries .

Powered by Discuz! X3.4

© 2001-2013 Comsenz Inc.

快速回复 返回顶部 返回列表