慢慢游社区

 找回密码
 我要注册
搜索
查看: 955|回复: 84

[剧情] [顶级收藏版][失孤 刘德华][极致画质洗版][4K 2160p 120FPS高帧 满屏-Mp4/8.28G][阿里云盘]

  [复制链接]

签到天数: 227 天

[LV.7]常住居民III

211

主题

1357

帖子

9万

积分

Rank: 64Rank: 64Rank: 64Rank: 64Rank: 64Rank: 64Rank: 64Rank: 64Rank: 64Rank: 64Rank: 64Rank: 64Rank: 64Rank: 64Rank: 64Rank: 64

阅读权限
110
游币
92158
精品值
83
热心值
0
分享值
647
在线时间
413 小时
注册时间
2019-5-16
最后登录
2022-1-20

活跃会员热心会员分享达人

发表于 2021-9-12 22:30:16 | 显示全部楼层 |阅读模式
本帖最后由 zhonghuahong 于 2021-9-14 15:32 编辑
最近看段奕宏和大鹏的新网剧《双探》挺上头的,主要里面小女孩被拐走的主线,才突然想分享这部《失孤》


◎译  名 失孤 / Lost and Love
◎年  代 2015
◎产  地 中国大陆 / 中国香港
◎类  别 剧情
◎语  言 汉语普通话
◎上映日期 2015-03-20(中国大陆/中国台湾) / 2015-03-26(中国香港)
◎IMDb链接 https://www.imdb.com/title/tt4440036/
◎豆瓣评分 6.8/10 (92075人评价)
◎豆瓣链接 https://movie.douban.com/subject/25835293/
◎片  长 108分钟
◎导  演 彭三源 Sanyuan Peng (id:1317241)
◎编  剧 彭三源 Sanyuan Peng (id:1317241)
◎演  员 刘德华 Andy Lau (id:1054424)
      井柏然 Boran Jing (id:1274628)
      吴君如 Sandra Ng (id:1127819)
      梁家辉 Tony Leung (id:1118167)
      倪景阳 Jingyang Ni (id:1312836)
      孙海英 Haiying Sun (id:1274237)
      许娣 Di Xu (id:1318124)
      刘雅瑟 Yase Liu (id:1276157)
      辛鹏 Peng Xin (id:1349342)
      田东霖 Tian Donglin (id:1363664)
      杨庭恺 Bernard Yang (id:1443208)
      陈佩华 Jessica Chan Pooi-Wa (id:1372898)
      彭三源 Sanyuan Peng (id:1317241)
      王中磊 Zhonglei Wang (id:1276037)
      泽贝纽·普瑞斯纳 Zbigniew Preisner (id:1045562)
      李屏宾 Mark Lee Ping Bing (id:1274482)
      林安儿 Angie Lam (id:1038152)
      吕东 Dong Lv (id:1410768)
      刘禹霆 Yuting Liu (id:1438990)

◎标  签 亲情 / 剧情 / 家庭 / 人性 / 温情 / 儿童 / 中国大陆 / 2015

◎简  介
  黝黑的面颊上,深深刻着饱经沧桑后所特有的苦涩与坚韧,农民雷泽宽(刘德华 饰)驾着一台破旧的摩托车奔走在祖国广袤而荒凉的土地上,十五年的漫长旅程,早已不敢奢求何时是个尽头。1998年的一天,他年仅两岁的儿子被人拐卖,从此下落不明。这一事件彻底改变了老雷的人生,他带着有限的家当以及满满当当的寻人启事,踏上看不见终点的征程。期间的苦辣辛酸,更有几人得知。这一日,老雷因修车邂逅了俊朗的小青年曾帅(井柏然 饰)。仿佛是命运安排的一般,曾帅竟和老雷的儿子有着相似的遭遇。以此为契机,曾帅和老雷结伴同行。一个为了找到失踪的儿子,一个为了找到梦回的故乡。
面容模糊的亲人,可曾等在未知的一处……

◎获奖情况 (共9项)
  第35届香港电影金像奖 (2016)
  最佳男主角(提名)
   └──刘德华 (id:1054424)

  第30届中国电影金鸡奖 (2015)
  最佳男主角(提名)
   └──刘德华 (id:1054424)
  最佳男配角(提名)
   └──井柏然 (id:1274628)
  最佳导演处女作(提名)
   └──彭三源 (id:1317241)
  最佳摄影(提名)
   └──李屏宾 (id:1274482)

  第16届中国电影华表奖 (2016)
  优秀故事片奖
  优秀男演员奖
   └──刘德华 (id:1054424)

  第13届中国长春电影节 (2016)
  金鹿奖 最佳编剧
   └──彭三源 (id:1317241)
  金鹿奖 最佳男配角
   └──井柏然 (id:1274628)



General
Complete name : 失孤.Lost.and.Love.2015.120FPS.Bit10.WEB-DL.4K.HEVC.AAC.mp4
Format : MPEG-4
Format profile : Base Media
Codec ID : isom (isom/iso2/mp41)
File size : 8.28 GiB
Duration : 1 h 48 min
Overall bit rate : 10.9 Mb/s
Writing application : Lavf58.32.104

Video
ID : 1
Format : HEVC
Format/Info : High Efficiency Video Coding
Format profile : Main 10@L5.2@Main
Codec ID : hev1
Codec ID/Info : High Efficiency Video Coding
Duration : 1 h 48 min
Bit rate : 10.8 Mb/s
Width : 3 840 pixels
Height : 1 632 pixels
Display aspect ratio : 2.35:1
Frame rate mode : Constant
Frame rate : 120.000 FPS
Color space : YUV
Chroma subsampling : 4:2:0
Bit depth : 10 bits
Bits/(Pixel*Frame) : 0.014
Stream size : 8.17 GiB (99%)
Color range : Limited
Color primaries : BT.709
Transfer characteristics : BT.709
Matrix coefficients : BT.709
Codec configuration box : hvcC

Audio
ID : 2
Format : AAC LC
Format/Info : Advanced Audio Codec Low Complexity
Codec ID : mp4a-40-2
Duration : 1 h 48 min
Bit rate mode : Constant
Bit rate : 126 kb/s
Channel(s) : 2 channels
Channel layout : L R
Sampling rate : 44.1 kHz
Frame rate : 43.066 FPS (1024 SPF)
Compression mode : Lossy
Stream size : 97.2 MiB (1%)
Default : Yes
Alternate group : 1


继续致敬经典!
华仔经典高分电影!
1、画质为4K 2160p,120FPS高帧!
2、8G左右,国语
3、下载下来观影最佳
4、分享不易,喜欢的给个评分谢谢
5、国漫《白+青 双4K 双60FPS》帖子沉了?顶一下 (不要币,抓紧)
[url=[顶级收藏版][国漫][白蛇][极致画质洗版][4K 2160p 真60FPS高帧-Mp4/6.34G][阿里云盘] https://www.manmanyou.net/thread-328683-1-1.html(出处: 慢慢游社区)]白蛇合集1+2[/url]
6、高帧到底看着有多爽?下载到电脑自己体会!!!
没有阿里云的可以点下面注册一个,目前不限速不限容量
我在使用不限速「阿里云盘」,赠送你 500GB 快来试试吧  
------------
点此链接领取福利:



链接:https://www.aliyundrive.com/s/FY94Acj6i3W

游客,需要您回复成为VIP才能查看隐藏内容





评分

参与人数 2分享值 +2 收起 理由
小熊出没 + 1 慢慢游有你更精彩!
zhhlmh + 1 慢慢游有你更精彩!

查看全部评分

楼主精华帖
回复

使用道具 举报

签到天数: 711 天

[LV.9]以坛为家II

4

主题

3573

帖子

7145

积分

Rank: 16Rank: 16Rank: 16Rank: 16

阅读权限
70
游币
3135
精品值
1
热心值
0
分享值
0
在线时间
435 小时
注册时间
2019-7-31
最后登录
2022-1-21
发表于 2021-9-12 23:16:10 | 显示全部楼层
楼主发贴辛苦了,谢谢楼主的精彩分享!我觉得慢慢游是注册对了!
回复 支持 反对

使用道具 举报

签到天数: 157 天

[LV.7]常住居民III

0

主题

4048

帖子

5149

积分

Rank: 16Rank: 16Rank: 16Rank: 16

阅读权限
70
游币
693
精品值
0
热心值
0
分享值
0
在线时间
408 小时
注册时间
2021-6-12
最后登录
2021-11-16
发表于 2021-9-12 23:21:17 | 显示全部楼层
感谢楼主的无私分享!要想慢慢游好 就靠你我他
回复 支持 反对

使用道具 举报

签到天数: 1084 天

[LV.10]以坛为家III

18

主题

1793

帖子

3509

积分

Rank: 8Rank: 8

阅读权限
50
游币
1103
精品值
83
热心值
0
分享值
3
在线时间
441 小时
注册时间
2018-3-27
最后登录
2022-1-18

活跃会员

发表于 2021-9-12 23:28:33 来自手机 | 显示全部楼层
感谢支持!!!!!!!
回复

使用道具 举报

签到天数: 1324 天

[LV.10]以坛为家III

0

主题

8546

帖子

1万

积分

Rank: 32Rank: 32Rank: 32Rank: 32Rank: 32Rank: 32Rank: 32Rank: 32

阅读权限
90
游币
2295
精品值
51
热心值
0
分享值
0
在线时间
1694 小时
注册时间
2018-2-24
最后登录
2022-1-22
发表于 2021-9-12 23:30:13 | 显示全部楼层
感谢楼主分享资源
回复 支持 反对

使用道具 举报

签到天数: 1940 天

[LV.Master]伴坛终老

0

主题

4117

帖子

7793

积分

Rank: 16Rank: 16Rank: 16Rank: 16

阅读权限
70
游币
2817
精品值
7
热心值
0
分享值
0
在线时间
845 小时
注册时间
2013-7-28
最后登录
2022-1-16
发表于 2021-9-13 01:00:04 | 显示全部楼层
楼主太厉害了!这个资源都能找到,辛苦了!我觉得慢慢游真是个好地方!
回复 支持 反对

使用道具 举报

签到天数: 1140 天

[LV.10]以坛为家III

0

主题

1613

帖子

2784

积分

Rank: 8Rank: 8

阅读权限
50
游币
277
精品值
0
热心值
0
分享值
0
在线时间
894 小时
注册时间
2016-8-23
最后登录
2022-1-21
发表于 2021-9-13 02:04:44 来自手机 | 显示全部楼层
我要看一下!谢谢楼主了
回复 支持 反对

使用道具 举报

该用户从未签到

2

主题

167

帖子

3648

积分

Rank: 8Rank: 8

阅读权限
50
游币
3141
精品值
54
热心值
0
分享值
0
在线时间
232 小时
注册时间
2019-9-5
最后登录
2022-1-18
发表于 2021-9-13 05:34:05 | 显示全部楼层
楼主发贴辛苦了,谢谢楼主的精彩分享!我觉得慢慢游是注册对了!
回复 支持 反对

使用道具 举报

签到天数: 283 天

[LV.8]以坛为家I

2

主题

772

帖子

1482

积分

Rank: 8Rank: 8

阅读权限
50
游币
510
精品值
0
热心值
0
分享值
0
在线时间
200 小时
注册时间
2018-10-26
最后登录
2022-1-21
发表于 2021-9-13 05:43:08 来自手机 | 显示全部楼层
楼主发贴辛苦了,谢谢楼主的精彩分享!我觉得慢慢游是注册对了!
回复 支持 反对

使用道具 举报

签到天数: 247 天

[LV.8]以坛为家I

12

主题

1763

帖子

8993

积分

Rank: 16Rank: 16Rank: 16Rank: 16

阅读权限
70
游币
6911
精品值
0
热心值
0
分享值
11
在线时间
297 小时
注册时间
2018-8-21
最后登录
2022-1-22
发表于 2021-9-13 07:55:48 | 显示全部楼层
楼主发贴辛苦了,谢谢楼主的精彩分享!我觉得慢慢游是注册对了!
回复 支持 反对

使用道具 举报

回帖须知
本站严禁灌水回复以及讽刺辱骂分享者的行为,轻者扣分警告,重者直接永久封禁。发帖前请详读:点击进入 。以免永久封禁。
 懒得打字?点击快捷回复➔➔ 
您需要登录后才可以回帖 登录 | 我要注册

本版积分规则

小黑屋|手机版|慢慢游社区 ( 站务处理service@mmyfilm.com )

GMT+8, 2022-1-22 19:56 , Processed in 0.131660 second(s), 30 queries .

Powered by Discuz! X3.4

© 2001-2013 Comsenz Inc.

快速回复 返回顶部 返回列表