慢慢游社区

 找回密码
 我要注册
搜索
查看: 369|回复: 4

[已封装] 【百度云】丧尸镇.Zombie Town.2007.DVDRip.VCD国英双语

[复制链接]

签到天数: 42 天

[LV.5]常住居民I

63

主题

156

帖子

4万

积分

Rank: 64Rank: 64Rank: 64Rank: 64Rank: 64Rank: 64Rank: 64Rank: 64Rank: 64Rank: 64Rank: 64Rank: 64Rank: 64Rank: 64Rank: 64Rank: 64

阅读权限
200
游币
36834
精品值
3875
热心值
0
分享值
189
在线时间
393 小时
注册时间
2019-3-22
最后登录
2022-1-25

活跃会员热心会员突出贡献优秀版主分享达人大叔勋章音频组专属勋章黄金会员

发表于 2022-1-1 23:05:20 | 显示全部楼层 |阅读模式
音轨取自@qq339301510提供的VCD视频,感谢分享!
视频取自网络,无字幕
没有找到更高清的片源,片子没有找到高清片源,只有DVD版的,豆瓣也没有评分,2另外配音也不好,也就没继续做优化,直接封装分享!

丧尸镇 Zombie Town (2007)
慢慢游社区_1.jpg
Zombie Town
导演: Damon Lemay
编剧: Damon Lemay
主演: Adam Hose/ Brynn Lucas/ Dennis Lemoine
类型: 恐怖
制片国家/地区: 美国
语言: 英语
上映日期: 2007
片长: 87 分钟
又名: Night of the Creeps 2 Zombie Town / 僵尸之城
IMDb: tt0496444
丧尸镇的剧情简介 · · · · · ·
  杰克是当地的一名技工,因为一场事故,他被迫停留在了小镇通往外界的唯一一条公路上。而此时镇里的居民们,因为被不知名的寄生虫传染,开始变成食人的僵尸。杰克去寻求前女友阿历克斯的帮助。另一个平日里与杰克针锋相对的兰迪,也加入了这个二人组。三个人一起努力逃脱僵尸的追捕,他们能成功吗?

慢慢游社区_丧尸镇.Zombie Town.2007.DVDRip.VCD国英双语.mkv_20220101_225417.129.jpg 慢慢游社区_丧尸镇.Zombie Town.2007.DVDRip.VCD国英双语.mkv_20220101_225422.240.jpg 慢慢游社区_丧尸镇.Zombie Town.2007.DVDRip.VCD国英双语.mkv_20220101_225428.440.jpg 慢慢游社区_丧尸镇.Zombie Town.2007.DVDRip.VCD国英双语.mkv_20220101_225432.098.jpg 慢慢游社区_丧尸镇.Zombie Town.2007.DVDRip.VCD国英双语.mkv_20220101_225430.812.jpg 慢慢游社区_丧尸镇.Zombie Town.2007.DVDRip.VCD国英双语.mkv_20220101_225433.518.jpg 慢慢游社区_丧尸镇.Zombie Town.2007.DVDRip.VCD国英双语.mkv_20220101_225449.598.jpg 慢慢游社区_丧尸镇.Zombie Town.2007.DVDRip.VCD国英双语.mkv.jpg
General
Unique ID                      : 329292684937373543620310548462422499624 (0xF7BB76D85B8FCC2196EE41FEBCCCA128)
Format                         : Matroska
Format version                 : Version 4
File size                      : 712 MiB
Duration                       : 1 h 27 min
Overall bit rate mode          : Variable
Overall bit rate               : 1 140 kb/s
Movie name                     : 丧尸镇.Zombie Town.2007.DVDRip.VCD国英双语
Encoded date                   : UTC 2021-12-30 21:09:05
Writing application            : mkvmerge v56.1.0 ('My Friend') 64-bit
Writing library                : libebml v1.4.2 + libmatroska v1.6.4

Video
ID                             : 1
Format                         : MPEG-4 Visual
Format profile                 : Advanced Simple@L5
Format settings                : BVOP2
Format settings, BVOP          : 2
Format settings, QPel          : No
Format settings, GMC           : No warppoints
Format settings, Matrix        : Default (H.263)
Codec ID                       : V_MS/VFW/FOURCC / XVID
Codec ID/Hint                  : XviD
Duration                       : 1 h 27 min
Bit rate                       : 934 kb/s
Width                          : 576 pixels
Height                         : 352 pixels
Display aspect ratio           : 16:10
Frame rate mode                : Constant
Frame rate                     : 25.000 FPS
Color space                    : YUV
Chroma subsampling             : 4:2:0
Bit depth                      : 8 bits
Scan type                      : Progressive
Compression mode               : Lossy
Bits/(Pixel*Frame)             : 0.184
Stream size                    : 583 MiB (82%)
Title                          : 丧尸镇.Zombie Town.2007.DVDRip
Writing library                : XviD 1.0.3 (UTC 2004-12-20)
Default                        : Yes
Forced                         : No

Audio #1
ID                             : 2
Format                         : MPEG Audio
Format version                 : Version 1
Format profile                 : Layer 2
Codec ID                       : A_MPEG/L2
Codec ID/Hint                  : MP2
Duration                       : 1 h 26 min
Bit rate mode                  : Constant
Bit rate                       : 32.0 kb/s
Channel(s)                     : 1 channel
Sampling rate                  : 48.0 kHz
Frame rate                     : 41.667 FPS (1152 SPF)
Compression mode               : Lossy
Stream size                    : 19.8 MiB (3%)
Title                          : VCD国语
Language                       : Chinese
Default                        : Yes
Forced                         : No

Audio #2
ID                             : 3
Format                         : MPEG Audio
Format version                 : Version 1
Format profile                 : Layer 3
Format settings                : Joint stereo
Codec ID                       : A_MPEG/L3
Codec ID/Hint                  : MP3
Duration                       : 1 h 27 min
Bit rate mode                  : Variable
Bit rate                       : 172 kb/s
Minimum bit rate               : 96.0 kb/s
Channel(s)                     : 2 channels
Sampling rate                  : 48.0 kHz
Frame rate                     : 41.667 FPS (1152 SPF)
Compression mode               : Lossy
Stream size                    : 108 MiB (15%)
Title                          : 原声
Writing library                : LAME3.95
Encoding settings              : -m j -V 2 -q 3 -lowpass 19 --vbr-new -b 96
Language                       : English
Default                        : No
Forced                         : No


链接:>>点击进入百度云下载<<(←购买前请先验证分享链接是否有效)
此处内容付费可见

点击下方支付。



评分

参与人数 2游币 +50 精品值 +10 分享值 +2 收起 理由
asdasd + 1
忘川河边 + 50 + 10 + 1 慢慢游有你更精彩!

查看全部评分

楼主精华帖
回复

使用道具 举报

签到天数: 345 天

[LV.8]以坛为家I

0

主题

438

帖子

3万

积分

Rank: 64Rank: 64Rank: 64Rank: 64Rank: 64Rank: 64Rank: 64Rank: 64Rank: 64Rank: 64Rank: 64Rank: 64Rank: 64Rank: 64Rank: 64Rank: 64

阅读权限
150
游币
32496
精品值
396
热心值
0
分享值
0
在线时间
96 小时
注册时间
2020-11-21
最后登录
2022-1-28
发表于 2022-1-2 00:41:50 | 显示全部楼层
本资源找了很久了,终于在慢慢游找到,感谢您的分享。祝慢慢游越来越好!
回复 支持 反对

使用道具 举报

签到天数: 173 天

[LV.7]常住居民III

0

主题

373

帖子

1018

积分

Rank: 8Rank: 8

阅读权限
50
游币
481
精品值
1
热心值
0
分享值
0
在线时间
162 小时
注册时间
2020-2-1
最后登录
2022-1-25
发表于 2022-1-2 09:34:21 | 显示全部楼层
谢谢楼主分享,喜欢
回复 支持 反对

使用道具 举报

签到天数: 12 天

[LV.3]偶尔看看II

0

主题

57

帖子

82

积分

Rank: 2

阅读权限
10
游币
18
精品值
0
热心值
0
分享值
0
在线时间
7 小时
注册时间
2021-12-3
最后登录
2022-1-12
发表于 2022-1-3 00:43:52 | 显示全部楼层
楼主太厉害了!这个资源都能找到,辛苦了!我觉得慢慢游真是个好地方!
回复 支持 反对

使用道具 举报

签到天数: 128 天

[LV.7]常住居民III

0

主题

1254

帖子

5371

积分

Rank: 16Rank: 16Rank: 16Rank: 16

阅读权限
70
游币
3987
精品值
0
热心值
0
分享值
0
在线时间
130 小时
注册时间
2021-9-15
最后登录
2022-1-28
发表于 2022-1-4 08:31:40 | 显示全部楼层
楼主太厉害了!这个资源都能找到,辛苦了!我觉得慢慢游真是个好地方!
回复 支持 反对

使用道具 举报

回帖须知
本站严禁灌水回复以及讽刺辱骂分享者的行为,轻者扣分警告,重者直接永久封禁。发帖前请详读:点击进入 。以免永久封禁。
 懒得打字?点击快捷回复➔➔ 
您需要登录后才可以回帖 登录 | 我要注册

本版积分规则

小黑屋|手机版|慢慢游社区 ( 站务处理service@mmyfilm.com )

GMT+8, 2022-1-28 11:10 , Processed in 0.447934 second(s), 35 queries .

Powered by Discuz! X3.4

© 2001-2013 Comsenz Inc.

快速回复 返回顶部 返回列表