慢慢游社区

 找回密码
 我要注册
搜索
查看: 481|回复: 31

[百度云]【英雄人 Heroman 1-26集】[2010][日本/动画][国日双语][每集400MB/MKV][内挂字幕][HEVC.1080P]

[复制链接]

签到天数: 339 天

[LV.8]以坛为家I

6

主题

440

帖子

4049

积分

Rank: 16Rank: 16Rank: 16Rank: 16

阅读权限
70
游币
3361
精品值
48
热心值
0
分享值
6
在线时间
140 小时
注册时间
2020-11-21
最后登录
2022-1-17
发表于 2022-1-10 20:18:17 | 显示全部楼层 |阅读模式
音轨:网络素材且处理不易
片源:HEVC 1080P
慢慢游社区_Heroman 26 END [BD 1920x1080 HEVC-10bit OPUS ASSx2].mkv_002057.161.jpg
慢慢游社区_Heroman 17 [BD 1920x1080 HEVC-10bit OPUS ASSx2].mkv_002053.293.jpg
慢慢游社区_Heroman 18 [BD 1920x1080 HEVC-10bit OPUS ASSx2].mkv_000431.643.jpg
General
Unique ID                      : 20358154667116266019552281067498447276 (0xF50D6851BFA831BB37E0E27171721AC)
Format                         : Matroska
Format version                 : Version 4
File size                      : 440 MiB
Duration                       : 24 min 30 s
Overall bit rate               : 2 509 kb/s
Encoded date                   : UTC 2022-01-10 09:25:23
Writing application            : mkvmerge v63.0.0 ('Everything') 64-bit
Writing library                : libebml v1.4.2 + libmatroska v1.6.4

Video
ID                             : 1
Format                         : HEVC
Format/Info                    : High Efficiency Video Coding
Format profile                 : Main 10@L4@Main
Codec ID                       : V_MPEGH/ISO/HEVC
Duration                       : 24 min 21 s
Bit rate                       : 2 334 kb/s
Width                          : 1 920 pixels
Height                         : 1 080 pixels
Display aspect ratio           : 16:9
Frame rate mode                : Constant
Frame rate                     : 23.976 (24000/1001) FPS
Color space                    : YUV
Chroma subsampling             : 4:2:0
Bit depth                      : 10 bits
Bits/(Pixel*Frame)             : 0.047
Stream size                    : 407 MiB (92%)
Writing library                : x265 3.2:[Linux][GCC 8.3.0][64 bit] 10bit
Encoding settings              : cpuid=1111039 / frame-threads=2 / wpp / no-pmode / no-pme / no-psnr / no-ssim / log-level=2 / input-csp=1 / input-res=1920x1080 / interlace=0 / total-frames=0 / level-idc=0 / high-tier=1 / uhd-bd=0 / ref=5 / no-allow-non-conformance / no-repeat-headers / annexb / no-aud / no-hrd / info / hash=0 / no-temporal-layers / open-gop / min-keyint=23 / keyint=250 / gop-lookahead=0 / bframes=10 / b-adapt=2 / b-pyramid / bframe-bias=0 / rc-lookahead=40 / lookahead-slices=0 / scenecut=40 / radl=0 / no-splice / no-intra-refresh / ctu=64 / min-cu-size=8 / rect / amp / max-tu-size=32 / tu-inter-depth=3 / tu-intra-depth=3 / limit-tu=4 / rdoq-level=2 / dynamic-rd=0.00 / no-ssim-rd / signhide / no-tskip / nr-intra=0 / nr-inter=0 / no-constrained-intra / strong-intra-smoothing / max-merge=4 / limit-refs=1 / limit-modes / me=3 / subme=4 / merange=57 / temporal-mvp / no-hme / weightp / weightb / no-analyze-src-pics / deblock=1:1 / sao / no-sao-non-deblock / rd=6 / selective-sao=4 / no-early-skip / rskip / no-fast-intra / no-tskip-fast / no-cu-lossless / b-intra / no-splitrd-skip / rdpenalty=0 / psy-rd=0.40 / psy-rdoq=1.00 / no-rd-refine / no-lossless / cbqpoffs=0 / crqpoffs=0 / rc=crf / crf=18.0 / qcomp=0.60 / qpstep=4 / stats-write=0 / stats-read=0 / ipratio=1.40 / pbratio=1.30 / aq-mode=2 / aq-strength=0.40 / cutree / zone-count=0 / no-strict-cbr / qg-size=32 / no-rc-grain / qpmax=69 / qpmin=0 / no-const-vbv / sar=1 / overscan=0 / videoformat=5 / range=0 / colorprim=2 / transfer=2 / colormatrix=2 / chromaloc=0 / display-window=0 / cll=0,0 / min-luma=0 / max-luma=1023 / log2-max-poc-lsb=8 / vui-timing-info / vui-hrd-info / slices=1 / no-opt-qp-pps / no-opt-ref-list-length-pps / no-multi-pass-opt-rps / scenecut-bias=0.05 / no-opt-cu-delta-qp / no-aq-motion / no-hdr / no-hdr-opt / no-dhdr10-opt / no-idr-recovery-sei / analysis-reuse-level=5 / scale-factor=0 / refine-intra=0 / refine-inter=0 / refine-mv=1 / refine-ctu-distortion=0 / no-limit-sao / ctu-info=0 / no-lowpass-dct / refine-analysis-type=0 / copy-pic=1 / max-ausize-factor=1.0 / no-dynamic-refine / no-single-sei / no-hevc-aq / no-svt / no-field / qp-adaptation-range=1.00
Default                        : Yes
Forced                         : No
Color range                    : Limited

Audio #1
ID                             : 2
Format                         : AAC LC SBR
Format/Info                    : Advanced Audio Codec Low Complexity with Spectral Band Replication
Commercial name                : HE-AAC
Format settings                : Explicit
Codec ID                       : A_AAC-2
Duration                       : 24 min 30 s
Bit rate                       : 69.5 kb/s
Channel(s)                     : 2 channels
Channel layout                 : L R
Sampling rate                  : 48.0 kHz
Frame rate                     : 23.438 FPS (2048 SPF)
Compression mode               : Lossy
Delay relative to video        : 40 ms
Stream size                    : 12.2 MiB (3%)
Default                        : Yes
Forced                         : No

Audio #2
ID                             : 3
Format                         : Opus
Codec ID                       : A_OPUS
Duration                       : 24 min 21 s
Bit rate                       : 117 kb/s
Channel(s)                     : 2 channels
Channel layout                 : L R
Sampling rate                  : 48.0 kHz
Frame rate                     : 50.000 FPS (960 SPF)
Compression mode               : Lossy
Delay relative to video        : 7 ms
Stream size                    : 20.5 MiB (5%)
Writing library                : Lavf58.29.100
Language                       : Japanese
Default                        : No
Forced                         : No

Text
ID                             : 4
Format                         : ASS
Codec ID                       : S_TEXT/ASS
Codec ID/Info                  : Advanced Sub Station Alpha
Duration                       : 24 min 18 s
Bit rate                       : 80 b/s
Count of elements              : 263
Compression mode               : Lossless
Stream size                    : 14.4 KiB (0%)
Default                        : Yes
Forced                         : No

Menu
00:00:00.007                   : en:Opening
00:01:31.904                   : en:Heroman 1A
00:02:43.907                   : en:Title
00:02:48.607                   : en:Heroman 1B
00:13:20.513                   : en:Commercial Break
00:13:30.537                   : en:Heroman 1C
00:22:17.557                   : en:To Be Continued...
00:22:21.647                   : en:Ending
00:23:51.577                   : en:Preview
《HEROMAN》是漫画月刊《少年GANGAN》展开的新漫画,并且同时进行动画化的企划。《少年GANGAN》的官方网页上则表示这是骨头社继《钢之炼金术师FA》后的又一大制作连载。 [1]
该作品讲述在美国西海岸的中心城市,憧憬着HERO的少年Joey一边打工,一边和祖母二人快乐地生活。
《HEROMAN》动画版自2010年4月1日起于日本开始播映。

剧情简介[url=][/url]
在美国西海岸的中心城市,憧憬着HERO的少年Joey一边打工,一边和祖母二人快乐地生活。
某天,Joey捡到了一个破烂机器人玩具并着手修理它,然后为它起名叫“HEROMAN”。而在修理好之后的当天夜晚,一度来自外太空的不明离奇闪电击中了Joey家




此处内容付费可见

向楼主支付【游币】或成为【特权组】才能显示 已有 10 人购买 

支付 30 游币 成为特权组
楼主精华帖
回复

使用道具 举报

签到天数: 15 天

[LV.4]偶尔看看III

0

主题

101

帖子

139

积分

Rank: 4

阅读权限
30
游币
31
精品值
0
热心值
0
分享值
0
在线时间
7 小时
注册时间
2022-1-4
最后登录
2022-1-18
发表于 2022-1-10 20:44:57 | 显示全部楼层
本资源找了很久了,终于在慢慢游找到,感谢您的分享。祝慢慢游越来越好!
回复 支持 反对

使用道具 举报

签到天数: 11 天

[LV.3]偶尔看看II

0

主题

59

帖子

99

积分

Rank: 4

阅读权限
30
游币
37
精品值
0
热心值
0
分享值
0
在线时间
3 小时
注册时间
2021-12-26
最后登录
2022-1-14
发表于 2022-1-10 20:52:51 | 显示全部楼层
楼主发贴辛苦了,谢谢楼主的精彩分享!我觉得慢慢游是注册对了!
回复 支持 反对

使用道具 举报

签到天数: 2133 天

[LV.Master]伴坛终老

3

主题

5986

帖子

7663

积分

Rank: 16Rank: 16Rank: 16Rank: 16

阅读权限
70
游币
345
精品值
17
热心值
0
分享值
1
在线时间
1296 小时
注册时间
2015-1-17
最后登录
2022-1-18
发表于 2022-1-10 23:41:02 | 显示全部楼层
楼主发贴辛苦了,谢谢楼主的精彩分享!我觉得慢慢游是注册对了!
回复 支持 反对

使用道具 举报

签到天数: 1081 天

[LV.10]以坛为家III

77

主题

2339

帖子

5万

积分

Rank: 64Rank: 64Rank: 64Rank: 64Rank: 64Rank: 64Rank: 64Rank: 64Rank: 64Rank: 64Rank: 64Rank: 64Rank: 64Rank: 64Rank: 64Rank: 64

阅读权限
110
游币
47813
精品值
113
热心值
0
分享值
54
在线时间
1338 小时
注册时间
2018-11-5
最后登录
2022-1-18

最佳新人

发表于 7 天前 | 显示全部楼层
楼主如此诚意的分享如此精彩的内容,必须赞!我想我是一天也不能离开慢慢游。
回复 支持 反对

使用道具 举报

签到天数: 1538 天

[LV.Master]伴坛终老

0

主题

1619

帖子

2295

积分

Rank: 8Rank: 8

阅读权限
50
游币
156
精品值
0
热心值
0
分享值
0
在线时间
520 小时
注册时间
2012-9-2
最后登录
2022-1-18
发表于 7 天前 | 显示全部楼层
楼主如此诚意的分享如此精彩的内容,必须赞!我想我是一天也不能离开慢慢游。
回复 支持 反对

使用道具 举报

签到天数: 2232 天

[LV.Master]伴坛终老

332

主题

4233

帖子

5万

积分

Rank: 64Rank: 64Rank: 64Rank: 64Rank: 64Rank: 64Rank: 64Rank: 64Rank: 64Rank: 64Rank: 64Rank: 64Rank: 64Rank: 64Rank: 64Rank: 64

阅读权限
110
游币
45334
精品值
432
热心值
0
分享值
54
在线时间
1329 小时
注册时间
2015-8-24
最后登录
2022-1-18

突出贡献

发表于 7 天前 | 显示全部楼层
怎么买不了?????
回复 支持 反对

使用道具 举报

签到天数: 8 天

[LV.3]偶尔看看II

0

主题

53

帖子

124

积分

Rank: 4

阅读权限
30
游币
66
精品值
0
热心值
0
分享值
0
在线时间
5 小时
注册时间
2022-1-10
最后登录
2022-1-18
发表于 7 天前 | 显示全部楼层
楼主,大恩不言谢了!慢慢游是最棒的!
回复 支持 反对

使用道具 举报

签到天数: 1258 天

[LV.10]以坛为家III

0

主题

1708

帖子

2222

积分

Rank: 8Rank: 8

阅读权限
50
游币
57
精品值
0
热心值
0
分享值
0
在线时间
458 小时
注册时间
2013-4-4
最后登录
2022-1-18
发表于 7 天前 | 显示全部楼层
先下载了,配音要是台配就好了
回复 支持 反对

使用道具 举报

签到天数: 1081 天

[LV.10]以坛为家III

77

主题

2339

帖子

5万

积分

Rank: 64Rank: 64Rank: 64Rank: 64Rank: 64Rank: 64Rank: 64Rank: 64Rank: 64Rank: 64Rank: 64Rank: 64Rank: 64Rank: 64Rank: 64Rank: 64

阅读权限
110
游币
47813
精品值
113
热心值
0
分享值
54
在线时间
1338 小时
注册时间
2018-11-5
最后登录
2022-1-18

最佳新人

发表于 7 天前 | 显示全部楼层
购买完了,但是还提示未购买什么鬼,麻烦私发一下
回复 支持 反对

使用道具 举报

回帖须知
本站严禁灌水回复以及讽刺辱骂分享者的行为,轻者扣分警告,重者直接永久封禁。发帖前请详读:点击进入 。以免永久封禁。
 懒得打字?点击快捷回复➔➔ 
您需要登录后才可以回帖 登录 | 我要注册

本版积分规则

小黑屋|手机版|慢慢游社区 ( 站务处理service@mmyfilm.com )

GMT+8, 2022-1-18 21:55 , Processed in 0.121623 second(s), 35 queries .

Powered by Discuz! X3.4

© 2001-2013 Comsenz Inc.

快速回复 返回顶部 返回列表