慢慢游社区

 找回密码
 我要注册
搜索
查看: 1650|回复: 182

[已封装] N大冠名荣誉发布《波希米亚狂想曲的摇滚传说上译+HBO台英三语双中字》.Bohemian.Rhapsody.2018.1080P-3AUDIo.mkv

  [复制链接]

签到天数: 34 天

[LV.5]常住居民I

598

主题

900

帖子

25万

积分

Rank: 64Rank: 64Rank: 64Rank: 64Rank: 64Rank: 64Rank: 64Rank: 64Rank: 64Rank: 64Rank: 64Rank: 64Rank: 64Rank: 64Rank: 64Rank: 64

阅读权限
150
游币
166507
精品值
39542
热心值
0
分享值
1229
在线时间
3060 小时
注册时间
2015-4-15
最后登录
2022-10-7

热心会员推广达人宣传达人突出贡献优秀版主荣誉管理正太勋章色狼勋章猥琐勋章大叔勋章皇冠勋章音频组专属勋章风度翩翩勋章

发表于 2022-9-2 22:00:48 | 显示全部楼层 |阅读模式
本帖最后由 autohome 于 2022-9-10 21:55 编辑

上译由SMMA联盟2哥倾情奉献!
上译中字由SMMA联盟2哥倾情奉献!
台配由SMMA联盟资深教授N大倾情奉献!
台配中字由SMMA联盟资深教授N大倾情奉献!
HBO源码片源由SMMA联盟技术总监Shaob8 迷之分享!
本人转帧合并发布,无删减,不用调,就不用费劲调制了,
感谢以上大神的分享,在此万分感谢!!!

发红包就要翻倍!!这样才爽!!!
慢慢游社区_无标题.jpg

导演: 布莱恩·辛格
编剧: 安东尼·麦卡滕 / 皮特·摩根
主演: 拉米·马雷克 / 本·哈迪 / 约瑟夫·梅泽罗 / 格威利姆·李 / 艾伦·里奇 / [url=]更多...[/url]
类型: 剧情 / 同性 / 音乐 / 传记
制片国家/地区: 英国 / 美国
语言: 台语、英语
上映日期: 2019-03-22(中国大陆) / 2018-11-02(美国)
片长: 135分钟 / 131分钟(中国大陆)
又名: 波希米亚狂想曲:摇滚传说(港) / 波希米亚狂想曲(台)
IMDb: tt1727824


剧情简介 · · · · · ·  本片是对皇后乐队、传奇主唱弗雷迪·莫库里以及他们音乐的致敬盛宴,这是一段充满爱、痛苦、接纳和音乐的旅程。
  弗雷迪·莫库里(拉米·马雷克 饰)曾是希思罗机场的一名普通搬运工,对音乐满腔热血的他,与布莱恩·梅(格威利姆·李 饰)、罗杰·泰勒(本·哈迪 饰)、约 翰·迪肯(约瑟夫·梅泽罗 饰)组成皇后乐队。这个殿堂级乐队的从无到有,从疏离到重聚,从低谷到巅峰,仿佛就是弗雷迪一生的缩影。在最后的日子里,弗雷迪做了生命中最重要的决定——在音乐史上最伟大的“拯救生命”大型摇滚乐演唱会上,将所有热血付诸于歌声。










聲音導演:郭霖
翻譯:郭蓉
錄音師:林厚伸
混音室:Deluxe Studio
錄音室:偉億錄音
配音班底:宋昱璁、曾允凡、張騰、胡鎮璽、林谷珍、夏治世、郭霖、馬伯強



角色                                                   演員                                配音
法魯克·布勒薩拉(佛萊迪·墨裘瑞)   雷米·馬利克                      宋昱璁
瑪莉·奧斯汀                                    露西·波頓                         曾允凡
布萊恩·梅                                         格威林·李                          張騰
羅傑·泰勒                                           班·哈迪                         胡鎮璽
約翰·迪肯                                     約瑟夫·馬傑羅                    林谷珍
約翰·李德                                         艾丹·吉倫                       夏治世
保羅·普蘭特                                     艾倫·里奇                         郭霖
吉姆·畢奇                                       湯姆·荷蘭德                     馬伯強
雷·福斯特                                       麥克·邁爾斯                     林谷珍
吉姆·赫頓                                      艾倫·麥卡斯克                   胡鎮璽



General
Unique ID                      : 131947339534291092825632225614222415560 (0x6344221B4DED3B460F390375D76556C8)
Complete name                  : G:\HBOgodown\新建文件夹 (5)\波希米亞狂想曲搖滾傳說\波希米亚狂想曲的摇滚传说上译+HBO台英三语双中字 .mkv
Format                         : Matroska
Format version                 : Version 4
File size                      : 3.59 GiB
Duration                       : 2 h 9 min
Overall bit rate               : 3 979 kb/s
Encoded date                   : UTC 2022-09-02 13:29:11
Writing application            : mkvmerge v63.0.0 ('Everything') 64-bit
Writing library                : libebml v1.4.2 + libmatroska v1.6.4


Video
ID                             : 1
Format                         : AVC
Format/Info                    : Advanced Video Codec
Format profile                 : High@L4
Format settings                : CABAC / 4 Ref Frames
Format settings, CABAC         : Yes
Format settings, Reference fra : 4 frames
Codec ID                       : V_MPEG4/ISO/AVC
Duration                       : 2 h 9 min
Bit rate                       : 2 955 kb/s
Width                          : 1 920 pixels
Height                         : 1 080 pixels
Display aspect ratio           : 16:9
Frame rate mode                : Constant
Frame rate                     : 30.000 FPS
Color space                    : YUV
Chroma subsampling             : 4:2:0
Bit depth                      : 8 bits
Scan type                      : Progressive
Bits/(Pixel*Frame)             : 0.048
Stream size                    : 2.66 GiB (74%)
Writing library                : x264 core 157 r2935 545de2f
Encoding settings              : cabac=1 / ref=2 / deblock=1:0:0 / analyse=0x3:0x113 / me=hex / subme=6 / psy=1 / psy_rd=1.00:0.00 / mixed_ref=1 / me_range=16 / chroma_me=1 / trellis=1 / 8x8dct=1 / cqm=0 / deadzone=21,11 / fast_pskip=1 / chroma_qp_offset=-2 / threads=34 / lookahead_threads=5 / sliced_threads=0 / nr=0 / decimate=1 / interlaced=0 / bluray_compat=0 / constrained_intra=0 / bframes=3 / b_pyramid=2 / b_adapt=1 / b_bias=0 / direct=1 / weightb=1 / open_gop=0 / weightp=1 / keyint=30 / keyint_min=16 / scenecut=0 / intra_refresh=0 / rc_lookahead=30 / rc=crf / mbtree=1 / crf=23.0 / qcomp=0.60 / qpmin=0 / qpmax=69 / qpstep=4 / vbv_maxrate=3500 / vbv_bufsize=3500 / crf_max=0.0 / nal_hrd=none / filler=0 / ip_ratio=1.40 / aq=1:1.00
Default                        : Yes
Forced                         : No


Audio #1
ID                             : 2
Format                         : AC-3
Format/Info                    : Audio Coding 3
Commercial name                : Dolby Digital
Codec ID                       : A_AC3
Duration                       : 2 h 9 min
Bit rate mode                  : Constant
Bit rate                       : 384 kb/s
Channel(s)                     : 6 channels
Channel layout                 : L R C LFE Ls Rs
Sampling rate                  : 48.0 kHz
Frame rate                     : 31.250 FPS (1536 SPF)
Compression mode               : Lossy
Delay relative to video        : 24 ms
Stream size                    : 354 MiB (10%)
Title                          : 上译国语
Language                       : Chinese
Service kind                   : Complete Main
Default                        : Yes
Forced                         : Yes


Audio #2
ID                             : 3
Format                         : AC-3
Format/Info                    : Audio Coding 3
Commercial name                : Dolby Digital
Codec ID                       : A_AC3
Duration                       : 2 h 9 min
Bit rate mode                  : Constant
Bit rate                       : 448 kb/s
Channel(s)                     : 6 channels
Channel layout                 : L R C LFE Ls Rs
Sampling rate                  : 48.0 kHz
Frame rate                     : 31.250 FPS (1536 SPF)
Compression mode               : Lossy
Delay relative to video        : 24 ms
Stream size                    : 414 MiB (11%)
Title                          : HBO台配
Language                       : Twi
Service kind                   : Complete Main
Default                        : No
Forced                         : No


Audio #3
ID                             : 4
Format                         : AAC LC
Format/Info                    : Advanced Audio Codec Low Complexity
Codec ID                       : A_AAC-2
Duration                       : 2 h 9 min
Bit rate                       : 192 kb/s
Channel(s)                     : 2 channels
Channel layout                 : L R
Sampling rate                  : 48.0 kHz
Frame rate                     : 46.875 FPS (1024 SPF)
Compression mode               : Lossy
Stream size                    : 175 MiB (5%)
Language                       : English
Default                        : No
Forced                         : No


Text #1
ID                             : 5
Format                         : UTF-8
Codec ID                       : S_TEXT/UTF8
Codec ID/Info                  : UTF-8 Plain Text
Duration                       : 2 h 7 min
Bit rate                       : 50 b/s
Frame rate                     : 0.260 FPS
Count of elements              : 1994
Stream size                    : 47.7 KiB (0%)
Title                          : 上译国配中字
Language                       : Chinese
Default                        : Yes
Forced                         : Yes


Text #2
ID                             : 6
Format                         : UTF-8
Codec ID                       : S_TEXT/UTF8
Codec ID/Info                  : UTF-8 Plain Text
Duration                       : 2 h 5 min
Bit rate                       : 58 b/s
Frame rate                     : 0.255 FPS
Count of elements              : 1916
Stream size                    : 54.0 KiB (0%)
Title                          : HBO官方中字
Language                       : Chinese
Default                        : No
Forced                         : No


不用权限,不用大洋,全网都可以搬,大家高兴吧,尽情享受吧,周末快乐!!!


「波希米亚狂想曲的摇滚传说...O台英三语双中字 .mkv」https://www.aliyundrive.com/s/Gxg9mxmYRVA

提取码:
游客,需要您回复成为VIP才能查看隐藏内容





评分

参与人数 17游币 +420 精品值 +20 分享值 +17 收起 理由
bokee + 1 慢慢游有你更精彩!
ppp211532 + 1
agxyxxzh + 1
zhhlmh + 1 慢慢游有你更精彩!
秤砣威武 + 1 资源很给力,我们很高兴!
东方飞鹰 + 1 神马都是浮云,资源才是硬道理!.
asdasd + 1
admin + 100 + 20 + 1 慢慢游有你更精彩!
TS天高云淡 + 120 + 1
bubugao + 1
马儿快点跑 + 100 + 1
waj110 + 1
大西天 + 1
古藤书斋 + 1
大鲨鱼jqb + 1 神马都是浮云,资源才是硬道理!.
YaphetS_7 + 100 + 1 n大冠名,必属精品。
liu8618331 + 1 慢慢游有你更精彩!

查看全部评分

楼主精华帖
回复

使用道具 举报

签到天数: 1278 天

[LV.10]以坛为家III

1

主题

4030

帖子

6041

积分

Rank: 16Rank: 16Rank: 16Rank: 16

阅读权限
70
游币
133
精品值
30
热心值
0
分享值
0
在线时间
1818 小时
注册时间
2017-10-1
最后登录
2022-10-7

活跃会员

发表于 2022-9-2 22:12:27 | 显示全部楼层

回帖奖励 +36 游币

高分电影,而且目前为止最全的音轨了。这个必须收藏!大神每次分享的都是精品啊!
回复 支持 反对

使用道具 举报

签到天数: 914 天

[LV.10]以坛为家III

0

主题

3189

帖子

2万

积分

Rank: 32Rank: 32Rank: 32Rank: 32Rank: 32Rank: 32Rank: 32Rank: 32

阅读权限
90
游币
20082
精品值
140
热心值
0
分享值
12
在线时间
1519 小时
注册时间
2020-3-13
最后登录
2022-10-7
发表于 2022-9-2 22:14:11 | 显示全部楼层

回帖奖励 +36 游币

楼主太厉害了!这个资源都能找到,辛苦了!我觉得慢慢游真是个好地方!
回复 支持 反对

使用道具 举报

签到天数: 345 天

[LV.8]以坛为家I

171

主题

1280

帖子

8万

积分

Rank: 64Rank: 64Rank: 64Rank: 64Rank: 64Rank: 64Rank: 64Rank: 64Rank: 64Rank: 64Rank: 64Rank: 64Rank: 64Rank: 64Rank: 64Rank: 64

阅读权限
150
游币
81352
精品值
1192
热心值
0
分享值
100
在线时间
876 小时
注册时间
2021-8-19
最后登录
2022-10-7

辰龙灌水之王

发表于 2022-9-2 22:20:08 | 显示全部楼层

回帖奖励 +36 游币

感谢楼主分享,周末愉快!
回复 支持 反对

使用道具 举报

签到天数: 1013 天

[LV.10]以坛为家III

0

主题

1437

帖子

4626

积分

Rank: 16Rank: 16Rank: 16Rank: 16

阅读权限
70
游币
2868
精品值
1
热心值
0
分享值
0
在线时间
319 小时
注册时间
2019-5-10
最后登录
2022-10-7
发表于 2022-9-2 22:20:58 | 显示全部楼层

回帖奖励 +36 游币

本资源找了很久了,终于在慢慢游找到,感谢您的分享。祝慢慢游越来越好!
回复 支持 反对

使用道具 举报

签到天数: 1673 天

[LV.Master]伴坛终老

3

主题

3766

帖子

9940

积分

Rank: 32Rank: 32Rank: 32Rank: 32Rank: 32Rank: 32Rank: 32Rank: 32

阅读权限
90
游币
4055
精品值
44
热心值
2
分享值
0
在线时间
2027 小时
注册时间
2018-1-14
最后登录
2022-10-7

热心会员

发表于 2022-9-2 22:22:00 | 显示全部楼层

回帖奖励 +36 游币

既然你诚信诚意的推荐了,那我就满怀欣喜的看看!
回复 支持 反对

使用道具 举报

签到天数: 790 天

[LV.10]以坛为家III

0

主题

1441

帖子

2549

积分

Rank: 8Rank: 8

阅读权限
50
游币
333
精品值
0
热心值
0
分享值
0
在线时间
775 小时
注册时间
2014-3-8
最后登录
2022-10-7
发表于 2022-9-2 22:31:02 | 显示全部楼层

回帖奖励 +36 游币

大善人撒钱了~!
回复 支持 反对

使用道具 举报

签到天数: 1002 天

[LV.10]以坛为家III

210

主题

2147

帖子

9万

积分

Rank: 64Rank: 64Rank: 64Rank: 64Rank: 64Rank: 64Rank: 64Rank: 64Rank: 64Rank: 64Rank: 64Rank: 64Rank: 64Rank: 64Rank: 64Rank: 64

阅读权限
110
游币
90207
精品值
222
热心值
0
分享值
124
在线时间
1468 小时
注册时间
2019-8-20
最后登录
2022-10-7

活跃会员

发表于 2022-9-2 22:31:54 来自手机 | 显示全部楼层

回帖奖励 +36 游币

感谢楼主分享!
回复 支持 反对

使用道具 举报

签到天数: 924 天

[LV.10]以坛为家III

23

主题

2046

帖子

1万

积分

Rank: 32Rank: 32Rank: 32Rank: 32Rank: 32Rank: 32Rank: 32Rank: 32

阅读权限
90
游币
9933
精品值
11
热心值
0
分享值
65
在线时间
1259 小时
注册时间
2019-10-3
最后登录
2022-10-6
发表于 2022-9-2 22:36:54 | 显示全部楼层

回帖奖励 +36 游币

太棒啦太棒啦~
回复 支持 反对

使用道具 举报

签到天数: 452 天

[LV.9]以坛为家II

16

主题

3883

帖子

2万

积分

Rank: 32Rank: 32Rank: 32Rank: 32Rank: 32Rank: 32Rank: 32Rank: 32

阅读权限
90
游币
16686
精品值
122
热心值
0
分享值
8
在线时间
555 小时
注册时间
2018-8-21
最后登录
2022-10-6

申猴射手座最佳新人大叔勋章灌水之王

发表于 2022-9-2 22:36:57 | 显示全部楼层

回帖奖励 +36 游币

楼主发贴辛苦了,谢谢楼主的精彩分享!我觉得慢慢游是注册对了!
回复 支持 反对

使用道具 举报

回帖须知
本站严禁灌水回复以及讽刺辱骂分享者的行为,轻者扣分警告,重者直接永久封禁。发帖前请详读:点击进入 。以免永久封禁。
 懒得打字?点击快捷回复➔➔ 
您需要登录后才可以回帖 登录 | 我要注册

本版积分规则

小黑屋|手机版|慢慢游社区 ( 站务处理service@mmyfilm.com )

GMT+8, 2022-10-7 11:15 , Processed in 0.178898 second(s), 34 queries .

Powered by Discuz! X3.4

© 2001-2013 Comsenz Inc.

快速回复 返回顶部 返回列表