慢慢游社区

 找回密码
 我要注册
搜索
查看: 170|回复: 10

[台剧] [台湾][百度][2017][1080P][通灵少女][国语中字][郭书瑶.蔡凡熙][6集全][MP4][3.24GB]

[复制链接]

签到天数: 49 天

[LV.5]常住居民I

108

主题

508

帖子

1万

积分

Rank: 32Rank: 32Rank: 32Rank: 32Rank: 32Rank: 32Rank: 32Rank: 32

阅读权限
90
游币
17255
精品值
1
热心值
0
分享值
13
在线时间
151 小时
注册时间
2015-1-26
最后登录
2024-5-20
发表于 5 天前 | 显示全部楼层 |阅读模式

◎译  名 通灵少女
◎片  名 通靈少女
◎年  代 2017
◎产  地 台湾/新加坡 Singapore
◎类  别 剧情/悬疑/奇幻
◎语  言 汉语普通话/闽南语
◎上映日期 2017-04-02(台湾)
◎豆瓣评分 7.6/10 from 1,955 users
◎豆瓣链接 https://movie.douban.com/subject/26842622/
◎集  数 6
◎片  长 45分钟
◎导  演 陈和榆 Ho-yu Chen
◎主  演 郭书瑶 Shu-yau Kuo
      蔡凡熙 Kent Cai
      陈慕义 Akio Chen
      郑茵声 Yinsheng Zheng
      李千娜 Gina Li
      黄仲昆 Chung-kun Huang
      谢翔雅 Xiangya Xie

◎简  介

  谢雅真(郭书瑶 饰)表面看来只是一名平凡的少女,可实际上,她拥有着一双能够洞悉阴阳两界的双眼。父母在谢雅真很小的时候就将她送入庙中修行,拜在金胜在(陈慕义 饰)门下,她的工作就是利用自己的特异功能,帮助客户们解决那些发生在他们身上的,科学无法解释的事件。
  在学校里,谢雅真尽己所能的低调行事,因此显得有些格格不入,除了她最好的朋友黄巧薇(郑茵声 饰),没有人知道谢雅真的另一重身份。一次偶然中,谢雅真邂逅了名为何允乐(蔡凡熙 饰)的转校生,趣味相投的两人很快就成为了知己,与此同时,美好的感情亦因为何允乐的存在而在谢雅真的内心里渐渐萌芽。
  • General
  • ID                             : 3 (0x3)
  • Format                         : MPEG-TS
  • File size                      : 1.42 GiB
  • Duration                       : 46 min 51 s
  • Overall bit rate mode          : Variable
  • Overall bit rate               : 4 337 kb/s
  • Video
  • ID                             : 5046 (0x13B6)
  • Menu ID                        : 181 (0xB5)
  • Format                         : AVC
  • Format/Info                    : Advanced Video Codec
  • Format profile                 : High@L4
  • Format settings, CABAC         : Yes
  • Format settings, ReFrames      : 4 frames
  • Codec ID                       : 27
  • Duration                       : 46 min 50 s
  • Bit rate                       : 3 994 kb/s
  • Width                          : 1 920 pixels
  • Height                         : 1 080 pixels
  • Display aspect ratio           : 16:9
  • Frame rate                     : 25.000 FPS
  • Standard                       : Component
  • Color space                    : YUV
  • Chroma subsampling             : 4:2:0
  • Bit depth                      : 8 bits
  • Scan type                      : Interlaced
  • Scan type, store method        : Separated fields
  • Scan order                     : Top Field First
  • Bits/(Pixel*Frame)             : 0.077
  • Stream size                    : 1.31 GiB (92%)
  • Color range                    : Limited
  • Color primaries                : BT.709
  • Transfer characteristics       : BT.709
  • Matrix coefficients            : BT.709
  • Audio
  • ID                             : 5047 (0x13B7)
  • Menu ID                        : 181 (0xB5)
  • Format                         : MPEG Audio
  • Format version                 : Version 1
  • Format profile                 : Layer 2
  • Codec ID                       : 4
  • Duration                       : 46 min 51 s
  • Bit rate mode                  : Constant
  • Bit rate                       : 128 kb/s
  • Channel(s)                     : 2 channels
  • Sampling rate                  : 48.0 kHz
  • Compression mode               : Lossy
  • Delay relative to video        : -1 s 516 ms
  • Stream size                    : 42.9 MiB (3%)

复制代码
链接:>>点击进入百度云下载<<(←购买前请先验证分享链接是否有效)




此处内容付费可见

向楼主支付【游币】或成为【特权组】才能显示 已有 1 人购买 

支付 20 游币 成为特权组

慢慢游社区-版权及免责申明1、本站为公益性交流平台,本贴所有内容为本帖作者发布,与本论坛立场无关
2、本主题贴由本帖作者发表,本帖作者与慢慢游社区享有帖子相关权利,有权追责
3、其他单位或个人使用、转载或引用本文时必须同时征得该帖子作者和慢慢游社区的同意
4、帖子作者须承担一切因本文发表而直接或间接导致的民事或刑事法律责任
5、本帖部分内容如有转载自其它媒体的内容,并不代表本站赞同其观点和对其真实性负责
6、如本帖部分内容侵犯到贵方版权,请邮件通知本站,本站将及时删除并致以最深的歉意
7、站务(侵权等)联系邮箱service@mmyfilm.com,24小时内会处理完毕
8、如本帖存在违反社区版规或其他法律规定情况,管理员可不通知作者直接删除本帖

回复

使用道具 举报

签到天数: 960 天

[LV.10]以坛为家III

1

主题

1万

帖子

2万

积分

Rank: 32Rank: 32Rank: 32Rank: 32Rank: 32Rank: 32Rank: 32Rank: 32

阅读权限
90
游币
6783
精品值
40
热心值
0
分享值
1
在线时间
882 小时
注册时间
2019-5-15
最后登录
2024-5-20
QQ
发表于 5 天前 | 显示全部楼层
楼主发贴辛苦了,谢谢楼主的精彩分享!
回复 支持 反对

使用道具 举报

签到天数: 1471 天

[LV.10]以坛为家III

7

主题

8905

帖子

1万

积分

Rank: 32Rank: 32Rank: 32Rank: 32Rank: 32Rank: 32Rank: 32Rank: 32

阅读权限
90
游币
8618
精品值
1
热心值
0
分享值
1
在线时间
977 小时
注册时间
2019-7-31
最后登录
2024-5-19
发表于 5 天前 | 显示全部楼层
楼主发贴辛苦了,谢谢楼主的精彩分享!我觉得慢慢游是注册对了!
回复 支持 反对

使用道具 举报

签到天数: 7 天

[LV.3]偶尔看看II

0

主题

58

帖子

89

积分

Rank: 4

阅读权限
30
游币
28
精品值
0
热心值
0
分享值
0
在线时间
3 小时
注册时间
2024-1-3
最后登录
2024-5-16
发表于 4 天前 | 显示全部楼层

其实我一直觉得楼主是资源大神!慢慢游有你们更精彩!
回复 支持 反对

使用道具 举报

签到天数: 356 天

[LV.8]以坛为家I

1

主题

1万

帖子

2万

积分

Rank: 32Rank: 32Rank: 32Rank: 32Rank: 32Rank: 32Rank: 32Rank: 32

阅读权限
90
游币
8263
精品值
0
热心值
0
分享值
2
在线时间
349 小时
注册时间
2022-1-15
最后登录
2024-5-20
发表于 4 天前 | 显示全部楼层

论坛不能没有像楼主这样的人才啊!当然我会一直支持慢慢游。
回复 支持 反对

使用道具 举报

签到天数: 1 天

[LV.1]初来乍到

42

主题

89

帖子

1万

积分

Rank: 64Rank: 64Rank: 64Rank: 64Rank: 64Rank: 64Rank: 64Rank: 64Rank: 64Rank: 64Rank: 64Rank: 64Rank: 64Rank: 64Rank: 64Rank: 64

阅读权限
150
游币
15034
精品值
192
热心值
0
分享值
1
在线时间
326 小时
注册时间
2020-3-1
最后登录
2024-5-19
发表于 4 天前 | 显示全部楼层
我要[通灵少女][国语中字] 怎么给你游币?
回复 支持 反对

使用道具 举报

签到天数: 7 天

[LV.3]偶尔看看II

0

主题

58

帖子

89

积分

Rank: 4

阅读权限
30
游币
28
精品值
0
热心值
0
分享值
0
在线时间
3 小时
注册时间
2024-1-3
最后登录
2024-5-16
发表于 4 天前 | 显示全部楼层

楼主太厉害了!这个资源都能找到,辛苦了!我觉得慢慢游真是个好地方!
回复 支持 反对

使用道具 举报

签到天数: 1 天

[LV.1]初来乍到

55

主题

474

帖子

1万

积分

Rank: 32Rank: 32Rank: 32Rank: 32Rank: 32Rank: 32Rank: 32Rank: 32

阅读权限
150
游币
12300
精品值
299
热心值
0
分享值
41
在线时间
395 小时
注册时间
2021-6-19
最后登录
2024-5-20
发表于 3 天前 | 显示全部楼层
该链接已超过访问人数上限,可联系分享者重新分享
回复 支持 反对

使用道具 举报

签到天数: 280 天

[LV.8]以坛为家I

0

主题

4169

帖子

5252

积分

Rank: 16Rank: 16Rank: 16Rank: 16

阅读权限
70
游币
734
精品值
0
热心值
0
分享值
0
在线时间
349 小时
注册时间
2018-7-17
最后登录
2024-5-19
发表于 3 天前 | 显示全部楼层
楼主发贴辛苦了,谢谢楼主的精彩分享!我觉得慢慢游是注册对了!
回复 支持 反对

使用道具 举报

签到天数: 13 天

[LV.3]偶尔看看II

0

主题

171

帖子

205

积分

Rank: 4

阅读权限
30
游币
26
精品值
0
热心值
0
分享值
0
在线时间
8 小时
注册时间
2020-2-17
最后登录
2024-5-17
发表于 3 天前 | 显示全部楼层

楼主太厉害了!这个资源都能找到,辛苦了!我觉得慢慢游真是个好地方!
回复 支持 反对

使用道具 举报

回帖须知
本站严禁灌水回复以及讽刺辱骂分享者的行为,轻者扣分警告,重者直接永久封禁。发帖前请详读:点击进入 。以免永久封禁。
 严禁胡乱回复,可快捷回复➔ 
您需要登录后才可以回帖 登录 | 我要注册

本版积分规则

小黑屋|手机版|慢慢游社区 ( 站务处理service@mmyfilm.com )

GMT+8, 2024-5-20 14:28 , Processed in 0.660785 second(s), 28 queries .

Powered by Discuz! X3.4

© 2001-2013 Comsenz Inc.

快速回复 返回顶部 返回列表